<?xml version="1.0" standalone="no"?>
<!DOCTYPE svg PUBLIC "-//W3C//DTD SVG 1.1//EN" "http://www.w3.org/Graphics/SVG/1.1/DTD/svg11.dtd" >
<svg xmlns="http://www.w3.org/2000/svg" xmlns:xlink="http://www.w3.org/1999/xlink" version="1.1">
<metadata>
Created by FontForge 20170924 at Wed May 11 12:00:10 2011
 By www-data
(c) 2011 Klim Type Foundry. All rights reserved.
</metadata>
<defs>
<font id="Calibre-Regular" horiz-adv-x="500" >
  <font-face 
    font-family="Calibre"
    font-weight="400"
    font-stretch="normal"
    units-per-em="1000"
    panose-1="2 11 5 3 3 2 2 6 2 3"
    ascent="650"
    descent="-350"
    x-height="444"
    cap-height="614"
    bbox="-120 -201 908 894"
    underline-thickness="30"
    underline-position="-70"
    stemh="71"
    stemv="75"
    unicode-range="U+0020-FB02"
  />
<missing-glyph horiz-adv-x="608" 
 />
    <glyph glyph-name="f_f" unicode="ff" horiz-adv-x="550" 
d="M550 649v-68c-15 9 -31 12 -48 12c-43 0 -72 -28 -72 -81v-68h100v-64h-100v-380h-75v380h-186v-380h-74v380h-75v64h75v68c0 89 58 141 136 141c24 0 41 -3 58 -10v-68c-14 9 -31 12 -47 12c-44 0 -73 -28 -73 -81v-62h186v74c0 89 58 141 136 141c24 0 42 -3 59 -10z
" />
    <glyph glyph-name=".notdef" horiz-adv-x="608" 
 />
    <glyph glyph-name="space" unicode=" " horiz-adv-x="221" 
 />
    <glyph glyph-name="exclam" unicode="!" horiz-adv-x="203" 
d="M48 49c0 31 24 55 53 55c30 0 54 -24 54 -55s-24 -54 -54 -54c-29 0 -53 23 -53 54zM74 193l-17 421h89l-18 -421h-54z" />
    <glyph glyph-name="quotedbl" unicode="&#x22;" horiz-adv-x="265" 
d="M40 395v219h66v-219h-66zM159 395v219h66v-219h-66z" />
    <glyph glyph-name="numbersign" unicode="#" horiz-adv-x="576" 
d="M511 235l-12 -59h-104l-42 -176h-68l42 176h-141l-42 -176h-67l42 176h-96l13 59h97l34 144h-102l12 59h104l42 176h68l-43 -176h141l43 176h67l-42 -176h95l-12 -59h-97l-34 -144h102zM234 379l-34 -144h141l34 144h-141z" />
    <glyph glyph-name="dollar" unicode="$" horiz-adv-x="477" 
d="M210 -89v99c-94 11 -164 65 -183 156h76c22 -63 74 -92 143 -92c75 0 127 36 127 99c0 45 -25 74 -91 91l-102 27c-79 20 -139 63 -139 152c0 92 70 155 169 162v90h69v-93c88 -15 141 -70 160 -149h-74c-17 51 -60 88 -136 88c-68 0 -116 -35 -116 -94
c0 -50 32 -73 92 -89l97 -25c91 -24 142 -75 142 -157c0 -96 -69 -155 -165 -166v-99h-69z" />
    <glyph glyph-name="percent" unicode="%" horiz-adv-x="642" 
d="M99 0l383 614h62l-383 -614h-62zM92 490c0 -41 33 -74 74 -74s75 33 75 74s-34 75 -75 75s-74 -34 -74 -75zM609 124c0 -74 -59 -133 -133 -133s-133 59 -133 133s59 133 133 133s133 -59 133 -133zM299 490c0 -74 -59 -133 -133 -133s-133 59 -133 133s59 133 133 133
s133 -59 133 -133zM550 124c0 41 -33 74 -74 74s-75 -33 -75 -74s34 -75 75 -75s74 34 74 75z" />
    <glyph glyph-name="ampersand" unicode="&#x26;" horiz-adv-x="585" 
d="M434 474h-75c-3 50 -34 88 -89 88c-53 0 -95 -34 -95 -92c0 -45 31 -77 66 -115l172 -183c17 39 27 85 29 136h70c-2 -67 -20 -132 -53 -186l115 -122h-99l-61 64c-45 -45 -104 -73 -176 -73c-117 0 -199 79 -199 188c0 74 47 137 112 168c-30 37 -49 72 -49 121
c0 96 73 155 168 155c104 0 160 -66 164 -149zM238 54c56 0 101 20 134 55l-179 191c-48 -18 -82 -66 -82 -121c0 -73 52 -125 127 -125z" />
    <glyph glyph-name="quoteright" unicode="&#x2019;" horiz-adv-x="168" 
d="M19 417l61 103c-25 4 -44 22 -44 50c0 31 24 53 54 53s53 -21 53 -58c0 -21 -10 -43 -22 -63l-51 -85h-51z" />
    <glyph glyph-name="parenleft" unicode="(" horiz-adv-x="321" 
d="M30 283c0 183 104 324 268 367v-80c-107 -27 -193 -133 -193 -287s86 -260 193 -287v-80c-164 43 -268 184 -268 367z" />
    <glyph glyph-name="parenright" unicode=")" horiz-adv-x="321" 
d="M291 283c0 -183 -104 -324 -268 -367v80c107 27 193 133 193 287s-86 260 -193 287v80c164 -43 268 -184 268 -367z" />
    <glyph glyph-name="asterisk" unicode="*" horiz-adv-x="332" 
d="M121 506l-90 53l22 38l91 -52v104h44v-104l91 52l22 -38l-91 -53l91 -52l-22 -38l-91 52v-105h-44v105l-91 -52l-22 38z" />
    <glyph glyph-name="plus" unicode="+" horiz-adv-x="540" 
d="M239 494h62v-166h166v-62h-166v-166h-62v166h-166v62h166v166z" />
    <glyph glyph-name="comma" unicode="," horiz-adv-x="171" 
d="M13 -107l63 106c-25 4 -44 21 -44 50c0 31 24 53 54 53s53 -21 53 -58c0 -21 -10 -44 -22 -63l-53 -88h-51z" />
    <glyph glyph-name="hyphen" unicode="-" horiz-adv-x="321" 
d="M40 226v70h241v-70h-241z" />
    <glyph glyph-name="period" unicode="." horiz-adv-x="171" 
d="M32 49c0 31 24 55 54 55c29 0 53 -24 53 -55s-24 -54 -53 -54c-30 0 -54 23 -54 54z" />
    <glyph glyph-name="slash" unicode="/" horiz-adv-x="333" 
d="M5 -84l248 734h75l-248 -734h-75z" />
    <glyph glyph-name="zero" unicode="0" horiz-adv-x="538" 
d="M269 -9c-137 0 -229 129 -229 316s92 316 229 316s229 -129 229 -316s-92 -316 -229 -316zM269 552c-100 0 -152 -102 -152 -245s52 -245 152 -245c99 0 152 102 152 245s-53 245 -152 245z" />
    <glyph glyph-name="one" unicode="1" horiz-adv-x="329" 
d="M254 615v-615h-77v520l-152 -78v80l182 93h47z" />
    <glyph glyph-name="two" unicode="2" horiz-adv-x="457" 
d="M341 449c0 63 -43 104 -111 104c-74 0 -114 -52 -120 -123h-81c12 114 88 193 201 193c117 0 187 -68 187 -173c0 -78 -62 -139 -124 -209l-156 -171h293v-70h-401v52l198 218c64 70 114 121 114 179z" />
    <glyph glyph-name="three" unicode="3" horiz-adv-x="460" 
d="M184 281v67h41c65 0 115 37 115 103c0 59 -43 104 -112 104s-113 -45 -122 -109h-77c15 104 90 177 199 177c117 0 187 -70 187 -168c0 -68 -40 -123 -96 -140c66 -19 108 -74 108 -143c0 -101 -74 -181 -197 -181c-120 0 -203 73 -213 184h77c11 -71 58 -116 135 -116
c73 0 123 44 123 112c0 69 -55 110 -125 110h-43z" />
    <glyph glyph-name="four" unicode="4" horiz-adv-x="509" 
d="M338 614l-229 -409h196v148h73v-148h108v-66h-108v-139h-73v139h-283v56l236 419h80z" />
    <glyph glyph-name="five" unicode="5" horiz-adv-x="469" 
d="M237 330c-49 0 -86 -25 -109 -53h-62v337h336v-70h-270v-185c21 19 62 39 112 39c113 0 193 -86 193 -204c0 -116 -83 -203 -199 -203c-117 0 -197 70 -211 184h77c13 -72 57 -116 134 -116c74 0 125 58 125 135s-51 136 -126 136z" />
    <glyph glyph-name="six" unicode="6" 
d="M127 196c0 -80 54 -138 133 -138c77 0 132 57 132 138c0 82 -55 140 -132 140c-78 0 -133 -57 -133 -140zM456 471h-78c-17 52 -51 87 -113 87c-90 0 -155 -103 -155 -235c0 -6 1 -21 1 -27c20 62 83 105 155 105c119 0 199 -93 199 -204c0 -113 -80 -206 -206 -206
c-80 0 -145 40 -183 117c-26 55 -36 116 -36 188c0 199 92 327 225 327c108 0 167 -58 191 -152z" />
    <glyph glyph-name="seven" unicode="7" horiz-adv-x="440" 
d="M415 553l-219 -553h-79l217 544h-316v70h397v-61z" />
    <glyph glyph-name="eight" unicode="8" horiz-adv-x="487" 
d="M243 55c78 0 134 48 134 118c0 69 -56 117 -134 117c-77 0 -133 -48 -133 -117c0 -70 56 -118 133 -118zM243 356c64 0 113 41 113 101c0 61 -49 102 -113 102c-63 0 -112 -41 -112 -102c0 -60 49 -101 112 -101zM243 -9c-118 0 -209 70 -209 176c0 80 52 138 120 156
c-57 20 -98 71 -98 138c0 99 83 162 187 162c105 0 188 -63 188 -162c0 -67 -42 -118 -98 -138c67 -18 120 -76 120 -156c0 -106 -91 -176 -210 -176z" />
    <glyph glyph-name="nine" unicode="9" 
d="M373 418c0 80 -54 138 -133 138c-77 0 -132 -57 -132 -138c0 -82 55 -140 132 -140c78 0 133 57 133 140zM44 143h78c17 -52 51 -87 113 -87c90 0 155 103 155 235c0 6 -1 21 -1 27c-20 -62 -83 -105 -155 -105c-119 0 -199 93 -199 204c0 113 80 206 206 206
c80 0 145 -40 183 -117c26 -55 36 -116 36 -188c0 -199 -92 -327 -225 -327c-108 0 -167 58 -191 152z" />
    <glyph glyph-name="colon" unicode=":" horiz-adv-x="171" 
d="M32 49c0 31 24 55 54 55c29 0 53 -24 53 -55s-24 -54 -53 -54c-30 0 -54 23 -54 54zM32 363c0 31 24 55 54 55c29 0 53 -24 53 -55s-24 -54 -53 -54c-30 0 -54 23 -54 54z" />
    <glyph glyph-name="semicolon" unicode=";" horiz-adv-x="171" 
d="M13 -107l63 106c-25 4 -44 21 -44 50c0 31 24 53 54 53s53 -21 53 -58c0 -21 -10 -44 -22 -63l-53 -88h-51zM32 363c0 31 24 55 54 55c29 0 53 -24 53 -55s-24 -54 -53 -54c-30 0 -54 23 -54 54z" />
    <glyph glyph-name="less" unicode="&#x3c;" horiz-adv-x="423" 
d="M62 256v78l296 151v-71l-238 -119l238 -119v-71z" />
    <glyph glyph-name="equal" unicode="=" horiz-adv-x="551" 
d="M79 199v58h394v-58h-394zM79 337v60h394v-60h-394z" />
    <glyph glyph-name="greater" unicode="&#x3e;" horiz-adv-x="423" 
d="M362 334v-78l-297 -151v71l238 119l-238 119v71z" />
    <glyph glyph-name="question" unicode="?" horiz-adv-x="432" 
d="M170 49c0 31 24 55 53 55c30 0 54 -24 54 -55s-24 -54 -54 -54c-29 0 -53 23 -53 54zM408 451c0 -74 -55 -126 -102 -176c-34 -36 -42 -58 -43 -82h-74c3 50 18 76 58 120c35 40 85 78 85 137c0 63 -43 103 -111 103c-73 0 -114 -51 -120 -123h-81c12 114 89 193 201 193
c117 0 187 -67 187 -172z" />
    <glyph glyph-name="at" unicode="@" horiz-adv-x="774" 
d="M560 381l-43 -243c-7 -40 8 -54 40 -54c71 0 125 68 125 187c0 145 -114 239 -271 239c-188 0 -317 -137 -317 -322c0 -213 168 -286 318 -286c89 0 160 20 217 46v-57c-50 -24 -129 -45 -217 -45c-194 0 -380 102 -380 342c0 209 152 378 379 378
c197 0 331 -127 331 -295c0 -163 -96 -241 -195 -241c-47 0 -86 21 -100 58c-20 -33 -62 -57 -102 -57c-84 0 -132 65 -132 148c0 109 74 211 182 211c45 0 77 -23 91 -46l7 37h67zM450 151l23 124c-11 30 -38 53 -74 53c-72 0 -117 -74 -117 -146c0 -53 29 -89 77 -89
c41 0 70 26 91 58z" />
    <glyph glyph-name="A" unicode="A" horiz-adv-x="596" 
d="M261 614h74l240 -614h-80l-71 185h-253l-70 -185h-80zM297 516l-100 -262h200z" />
    <glyph glyph-name="B" unicode="B" horiz-adv-x="538" 
d="M388 318c66 -17 111 -76 111 -145c0 -112 -78 -173 -204 -173h-222v614h202c127 0 203 -57 203 -163c0 -73 -42 -118 -90 -133zM150 347h125c82 0 127 33 127 100s-45 98 -127 98h-125v-198zM150 281v-212h145c83 0 127 42 127 106c0 65 -44 106 -127 106h-145z" />
    <glyph glyph-name="C" unicode="C" horiz-adv-x="586" 
d="M37 307c0 191 120 316 275 316c129 0 214 -75 239 -189h-78c-25 71 -76 118 -161 118c-117 0 -196 -99 -196 -245c0 -145 78 -245 196 -245c85 0 136 47 161 119h78c-25 -115 -111 -190 -239 -190c-155 0 -275 125 -275 316z" />
    <glyph glyph-name="D" unicode="D" horiz-adv-x="605" 
d="M152 71h117c139 0 221 92 221 236s-82 237 -221 237h-117v-473zM73 0v614h197c180 0 298 -120 298 -307s-118 -307 -298 -307h-197z" />
    <glyph glyph-name="E" unicode="E" horiz-adv-x="515" 
d="M73 614h391v-70h-313v-194h284v-70h-284v-209h313v-71h-391v614z" />
    <glyph glyph-name="F" unicode="F" horiz-adv-x="485" 
d="M152 0h-79v614h375v-70h-296v-207h278v-70h-278v-267z" />
    <glyph glyph-name="G" unicode="G" horiz-adv-x="610" 
d="M498 235h-147v68h222v-42c0 -164 -104 -270 -254 -270c-160 0 -282 124 -282 316s123 316 280 316c131 0 217 -75 242 -189h-79c-26 72 -76 118 -163 118c-119 0 -201 -98 -201 -245s81 -246 203 -246c107 0 170 67 179 174z" />
    <glyph glyph-name="H" unicode="H" horiz-adv-x="651" 
d="M499 614h79v-614h-79v280h-347v-280h-79v614h79v-263h347v263z" />
    <glyph glyph-name="I" unicode="I" horiz-adv-x="225" 
d="M152 614v-614h-79v614h79z" />
    <glyph glyph-name="J" unicode="J" horiz-adv-x="479" 
d="M17 174h81c8 -69 50 -111 119 -111c75 0 122 42 122 141v410h79v-410c0 -143 -83 -213 -200 -213c-121 0 -193 75 -201 183z" />
    <glyph glyph-name="K" unicode="K" horiz-adv-x="564" 
d="M152 614v-307l286 307h100l-263 -280l272 -334h-98l-231 280l-66 -71v-209h-79v614h79z" />
    <glyph glyph-name="L" unicode="L" horiz-adv-x="504" 
d="M73 0v614h79v-543h313v-71h-392z" />
    <glyph glyph-name="M" unicode="M" horiz-adv-x="736" 
d="M396 0h-54l-194 468v-468h-75v614h89l208 -504l207 504h86v-614h-75v468z" />
    <glyph glyph-name="N" unicode="N" horiz-adv-x="623" 
d="M550 614v-614h-58l-343 488v-488h-76v614h75l327 -467v467h75z" />
    <glyph glyph-name="O" unicode="O" horiz-adv-x="629" 
d="M592 307c0 -185 -116 -316 -278 -316c-161 0 -277 131 -277 316c0 186 116 316 277 316c162 0 278 -130 278 -316zM513 307c0 144 -80 245 -199 245c-118 0 -198 -101 -198 -245s80 -245 198 -245c119 0 199 101 199 245z" />
    <glyph glyph-name="P" unicode="P" horiz-adv-x="537" 
d="M303 246h-151v-246h-79v614h230c124 0 202 -63 202 -184c0 -120 -78 -184 -202 -184zM427 430c0 70 -43 115 -126 115h-149v-229h149c83 0 126 45 126 114z" />
    <glyph glyph-name="Q" unicode="Q" horiz-adv-x="628" 
d="M500 -36l-50 63c-40 -23 -86 -36 -136 -36c-161 0 -277 131 -277 316c0 186 116 316 277 316c162 0 278 -130 278 -316c0 -99 -34 -182 -89 -238l51 -64zM513 307c0 144 -80 245 -199 245c-118 0 -198 -101 -198 -245s80 -245 198 -245c34 0 66 7 92 21l-52 66l54 40
l50 -64c35 42 55 103 55 182z" />
    <glyph glyph-name="R" unicode="R" horiz-adv-x="552" 
d="M261 260h-109v-260h-79v614h228c123 0 201 -62 201 -178c0 -102 -60 -160 -156 -173l181 -263h-90zM152 545v-218h147c81 0 125 41 125 109s-44 109 -125 109h-147z" />
    <glyph glyph-name="S" unicode="S" horiz-adv-x="509" 
d="M23 160h80c23 -68 81 -102 156 -102c80 0 136 39 136 107c0 48 -27 79 -98 97l-110 29c-85 22 -147 65 -147 158c0 104 86 174 202 174c127 0 202 -65 225 -162h-79c-19 55 -65 95 -146 95c-73 0 -127 -38 -127 -101c0 -52 34 -77 98 -94l105 -27
c98 -25 153 -78 153 -165c0 -111 -90 -178 -212 -178s-213 61 -236 169z" />
    <glyph glyph-name="T" unicode="T" horiz-adv-x="567" 
d="M30 544v70h507v-70h-214v-544h-79v544h-214z" />
    <glyph glyph-name="U" unicode="U" horiz-adv-x="607" 
d="M303 -9c-139 0 -240 84 -240 253v370h78v-361c0 -131 63 -192 162 -192s162 61 162 192v361h79v-371c0 -168 -101 -252 -241 -252z" />
    <glyph glyph-name="V" unicode="V" horiz-adv-x="590" 
d="M332 0h-74l-237 614h83l192 -510l193 510h80z" />
    <glyph glyph-name="W" unicode="W" horiz-adv-x="767" 
d="M353 614h63l130 -488l126 488h76l-163 -614h-72l-129 479l-131 -479h-71l-163 614h78l126 -488z" />
    <glyph glyph-name="X" unicode="X" horiz-adv-x="557" 
d="M532 614l-209 -300l218 -314h-90l-174 250l-173 -250h-87l217 312l-209 302h90l164 -239l166 239h87z" />
    <glyph glyph-name="Y" unicode="Y" horiz-adv-x="557" 
d="M280 324l177 290h84l-224 -361v-253h-78v253l-222 361h86z" />
    <glyph glyph-name="Z" unicode="Z" horiz-adv-x="534" 
d="M492 71v-71h-451v57l349 487h-344v70h442v-56l-348 -487h352z" />
    <glyph glyph-name="bracketleft" unicode="[" horiz-adv-x="313" 
d="M145 582v-598h145v-68h-217v734h217v-68h-145z" />
    <glyph glyph-name="backslash" unicode="\" horiz-adv-x="333" 
d="M80 650l248 -734h-75l-248 734h75z" />
    <glyph glyph-name="bracketright" unicode="]" horiz-adv-x="313" 
d="M168 -16v598h-145v68h217v-734h-217v68h145z" />
    <glyph glyph-name="asciicircum" unicode="^" horiz-adv-x="357" 
d="M142 614h74l124 -194h-78l-83 128l-83 -128h-79z" />
    <glyph glyph-name="underscore" unicode="_" horiz-adv-x="367" 
d="M20 -110v68h327v-68h-327z" />
    <glyph glyph-name="quoteleft" unicode="&#x2018;" horiz-adv-x="168" 
d="M149 614l-61 -103c25 -4 44 -22 44 -50c0 -31 -24 -53 -54 -53s-53 21 -53 58c0 21 10 43 22 63l51 85h51z" />
    <glyph glyph-name="a" unicode="a" horiz-adv-x="450" 
d="M389 0h-72v33c-17 -18 -64 -41 -117 -41c-90 0 -165 54 -165 142c0 83 75 139 170 139c46 0 93 -19 112 -36v56c0 55 -34 95 -98 95c-47 0 -77 -20 -91 -61h-74c15 75 81 126 166 126c106 0 169 -60 169 -157v-296zM317 110v46c-13 33 -58 55 -104 55
c-54 0 -106 -24 -106 -77c0 -54 52 -79 106 -79c46 0 91 22 104 55z" />
    <glyph glyph-name="b" unicode="b" horiz-adv-x="502" 
d="M142 52v-52h-76v650h76v-258c22 32 70 61 125 61c130 0 200 -106 200 -231c0 -126 -70 -231 -200 -231c-55 0 -103 29 -125 61zM142 312v-180c23 -46 67 -73 114 -73c85 0 135 69 135 163s-50 163 -135 163c-47 0 -91 -27 -114 -73z" />
    <glyph glyph-name="c" unicode="c" horiz-adv-x="446" 
d="M35 222c0 138 83 231 202 231c100 0 163 -58 178 -143h-77c-10 48 -48 77 -101 77c-76 0 -126 -68 -126 -165s50 -165 126 -165c53 0 91 29 101 77h77c-15 -85 -78 -143 -178 -143c-119 0 -202 93 -202 231z" />
    <glyph glyph-name="d" unicode="d" horiz-adv-x="502" 
d="M360 0v52c-22 -32 -70 -61 -125 -61c-130 0 -200 105 -200 231c0 125 70 231 200 231c55 0 103 -29 125 -61v258h76v-650h-76zM360 132v180c-23 46 -67 73 -114 73c-85 0 -135 -69 -135 -163s50 -163 135 -163c47 0 91 27 114 73z" />
    <glyph glyph-name="e" unicode="e" horiz-adv-x="457" 
d="M347 133h71c-16 -84 -79 -142 -179 -142c-121 0 -204 93 -204 230c0 133 81 232 202 232c122 0 187 -89 187 -218v-27h-314c1 -95 54 -153 129 -153c55 0 96 28 108 78zM238 389c-67 0 -115 -46 -126 -124h236c-1 66 -36 124 -110 124z" />
    <glyph glyph-name="f" unicode="f" horiz-adv-x="289" 
d="M289 649v-68c-14 9 -31 12 -47 12c-44 0 -73 -28 -73 -81v-68h100v-64h-100v-380h-74v380h-75v64h75v74c0 89 58 141 136 141c24 0 41 -3 58 -10z" />
    <glyph glyph-name="g" unicode="g" horiz-adv-x="501" 
d="M358 30v33c-22 -31 -69 -60 -124 -60c-130 0 -199 108 -199 225c0 118 69 225 199 225c55 0 102 -28 124 -59v50h76v-409c0 -146 -84 -215 -198 -215c-108 0 -176 56 -190 147h74c13 -56 55 -83 116 -83c80 0 122 50 122 146zM358 140v177c-23 42 -65 69 -113 69
c-84 0 -133 -66 -133 -158c0 -91 49 -157 133 -157c48 0 90 27 113 69z" />
    <glyph glyph-name="h" unicode="h" horiz-adv-x="489" 
d="M67 0v650h75v-262c26 35 74 65 131 65c101 0 156 -65 156 -162v-291h-76v279c0 62 -31 105 -98 105c-52 0 -97 -35 -113 -83v-301h-75z" />
    <glyph glyph-name="i" unicode="i" horiz-adv-x="209" 
d="M142 444v-444h-75v444h75zM153 578c0 -26 -22 -48 -49 -48c-26 0 -48 22 -48 48c0 27 22 48 48 48c27 0 49 -21 49 -48z" />
    <glyph glyph-name="j" unicode="j" horiz-adv-x="207" 
d="M142 444v-495c0 -83 -46 -128 -129 -128c-9 0 -24 1 -32 4v64c6 -1 17 -3 26 -3c39 0 60 18 60 68v490h75zM153 578c0 -26 -22 -48 -49 -48c-26 0 -48 22 -48 48c0 27 22 48 48 48c27 0 49 -21 49 -48z" />
    <glyph glyph-name="k" unicode="k" horiz-adv-x="464" 
d="M359 0l-169 205l-48 -46v-159h-75v650h75v-403l203 197h99l-200 -192l207 -252h-92z" />
    <glyph glyph-name="l" unicode="l" horiz-adv-x="209" 
d="M142 650v-650h-75v650h75z" />
    <glyph glyph-name="m" unicode="m" horiz-adv-x="717" 
d="M382 382c28 40 73 71 135 71c90 0 140 -63 140 -159v-294h-76v282c0 62 -27 103 -84 103c-45 0 -84 -31 -98 -79v-306h-75v282c0 62 -27 103 -84 103c-45 0 -84 -31 -98 -79v-306h-75v444h75v-52c22 35 65 61 120 61c56 0 99 -29 120 -71z" />
    <glyph glyph-name="n" unicode="n" horiz-adv-x="489" 
d="M67 0v444h75v-56c26 35 74 65 131 65c101 0 156 -65 156 -162v-291h-76v279c0 62 -31 105 -98 105c-52 0 -97 -35 -113 -83v-301h-75z" />
    <glyph glyph-name="o" unicode="o" horiz-adv-x="478" 
d="M443 222c0 -136 -83 -231 -204 -231c-122 0 -204 95 -204 231s82 231 204 231c121 0 204 -95 204 -231zM367 222c0 97 -48 165 -128 165s-128 -68 -128 -165s48 -165 128 -165s128 68 128 165z" />
    <glyph glyph-name="p" unicode="p" horiz-adv-x="502" 
d="M142 52v-222h-75v614h75v-52c23 32 70 61 125 61c131 0 200 -108 200 -231s-69 -231 -200 -231c-55 0 -102 29 -125 61zM142 312v-180c23 -46 67 -73 114 -73c85 0 135 69 135 163s-50 163 -135 163c-47 0 -91 -27 -114 -73z" />
    <glyph glyph-name="q" unicode="q" horiz-adv-x="502" 
d="M360 -170v222c-23 -32 -70 -61 -125 -61c-131 0 -200 108 -200 231s69 231 200 231c55 0 102 -29 125 -61v52h75v-614h-75zM360 132v180c-23 46 -67 73 -114 73c-85 0 -135 -69 -135 -163s50 -163 135 -163c47 0 91 27 114 73z" />
    <glyph glyph-name="r" unicode="r" horiz-adv-x="321" 
d="M295 446v-77c-12 8 -31 12 -50 12c-47 0 -88 -31 -103 -83v-298h-75v444h75v-58c19 38 61 67 110 67c19 0 35 -3 43 -7z" />
    <glyph glyph-name="s" unicode="s" horiz-adv-x="414" 
d="M30 122h78c14 -46 53 -68 105 -68c53 0 91 21 91 66c0 31 -20 50 -66 62l-88 23c-63 16 -107 48 -107 117c0 79 69 131 159 131c98 0 156 -48 172 -126h-75c-13 40 -44 63 -98 63c-44 0 -85 -21 -85 -64c0 -30 20 -44 62 -56l86 -21c76 -20 113 -62 113 -124
c0 -84 -70 -134 -165 -134c-97 0 -168 49 -182 131z" />
    <glyph glyph-name="t" unicode="t" horiz-adv-x="317" 
d="M88 112v268h-72v64h72v117h75v-117h107v-64h-107v-260c0 -43 21 -62 59 -62c21 0 43 8 58 18v-70c-17 -9 -43 -15 -70 -15c-72 0 -122 39 -122 121z" />
    <glyph glyph-name="u" unicode="u" horiz-adv-x="487" 
d="M421 444v-444h-76v56c-25 -35 -72 -65 -129 -65c-101 0 -155 65 -155 162v291h76v-279c0 -62 30 -105 97 -105c52 0 95 35 111 83v301h76z" />
    <glyph glyph-name="v" unicode="v" horiz-adv-x="455" 
d="M264 0h-74l-172 444h81l130 -349l129 349h79z" />
    <glyph glyph-name="w" unicode="w" horiz-adv-x="629" 
d="M349 444l91 -339l98 339h73l-131 -444h-73l-92 337l-93 -337h-73l-131 444h75l98 -339l91 339h67z" />
    <glyph glyph-name="x" unicode="x" horiz-adv-x="449" 
d="M422 444l-156 -214l165 -230h-85l-123 173l-124 -173h-81l164 227l-155 217h86l112 -159l115 159h82z" />
    <glyph glyph-name="y" unicode="y" horiz-adv-x="455" 
d="M198 -170h-74l67 167l-173 447h81l131 -350l129 350h78z" />
    <glyph glyph-name="z" unicode="z" horiz-adv-x="434" 
d="M390 64v-64h-349v49l249 331h-241v64h337v-49l-247 -331h251z" />
    <glyph glyph-name="braceleft" unicode="{" horiz-adv-x="339" 
d="M175 206v-185c0 -24 13 -37 36 -37h105v-68h-104c-65 0 -111 46 -111 112v183c0 24 -11 37 -35 37h-46v70h46c24 0 35 12 35 37v183c0 66 46 112 111 112h104v-68h-105c-23 0 -36 -13 -36 -37v-185c0 -38 -18 -62 -43 -77c25 -15 43 -39 43 -77z" />
    <glyph glyph-name="bar" unicode="|" horiz-adv-x="219" 
d="M73 -84v734h73v-734h-73z" />
    <glyph glyph-name="braceright" unicode="}" horiz-adv-x="339" 
d="M164 21v185c0 38 18 62 43 77c-25 15 -43 39 -43 77v185c0 24 -13 37 -36 37h-105v68h104c65 0 111 -46 111 -112v-183c0 -25 11 -37 35 -37h46v-70h-46c-24 0 -35 -13 -35 -37v-183c0 -66 -46 -112 -111 -112h-104v68h105c23 0 36 13 36 37z" />
    <glyph glyph-name="asciitilde" unicode="~" horiz-adv-x="418" 
d="M315 335h63c0 -81 -36 -129 -97 -129c-62 0 -93 66 -135 66c-28 0 -43 -22 -43 -62h-63c0 80 36 128 97 128s92 -66 135 -66c27 0 43 23 43 63z" />
    <glyph glyph-name="exclamdown" unicode="&#xa1;" horiz-adv-x="209" 
d="M48 469c0 31 24 54 53 54c30 0 54 -23 54 -54s-24 -55 -54 -55c-29 0 -53 24 -53 55zM57 -96l17 421h54l18 -421h-89z" />
    <glyph glyph-name="cent" unicode="&#xa2;" horiz-adv-x="446" 
d="M35 232c0 126 69 214 172 229v87h69v-88c79 -14 126 -69 138 -145h-75c-9 51 -48 82 -102 82c-77 0 -126 -68 -126 -165s49 -165 126 -165c54 0 93 31 102 82h75c-11 -76 -59 -131 -138 -145v-91h-69v90c-103 14 -172 103 -172 229z" />
    <glyph glyph-name="sterling" unicode="&#xa3;" horiz-adv-x="488" 
d="M187 425v-91h154v-62h-154v-116c0 -35 -8 -71 -23 -91h296v-65h-429v65h61c13 23 22 47 22 91v116h-83v62h83v91c0 115 71 198 179 198c97 0 156 -59 169 -145h-73c-9 50 -41 79 -96 79c-67 0 -106 -51 -106 -132z" />
    <glyph glyph-name="fraction" unicode="&#x2044;" horiz-adv-x="210" 
d="M330 614l-383 -614h-67l383 614h67z" />
    <glyph glyph-name="yen" unicode="&#xa5;" horiz-adv-x="535" 
d="M71 264v59h127l-173 291h84l160 -275l159 275h81l-173 -291h127v-59h-157v-70h157v-60h-157v-134h-78v134h-157v60h157v70h-157z" />
    <glyph glyph-name="florin" unicode="&#x192;" horiz-adv-x="405" 
d="M68 281v63h82l25 138c16 88 71 141 155 141c23 0 44 -4 61 -12v-68c-17 9 -37 14 -60 14c-43 0 -73 -29 -82 -81l-24 -132h97v-63h-108l-56 -320c-15 -85 -53 -138 -140 -138c-25 0 -43 4 -60 12v68c17 -9 41 -14 59 -14c44 0 58 30 67 78l55 314h-71z" />
    <glyph glyph-name="section" unicode="&#xa7;" horiz-adv-x="455" 
d="M363 88c10 -17 16 -36 16 -61c0 -80 -65 -128 -155 -128c-101 0 -160 53 -173 134h73c11 -44 42 -72 100 -72c45 0 82 21 82 63c0 35 -19 50 -55 73l-127 85c-55 36 -101 73 -101 138c0 48 26 90 68 113c-10 16 -16 37 -16 62c0 80 66 128 156 128
c100 0 160 -53 173 -134h-74c-11 44 -41 72 -99 72c-45 0 -83 -21 -83 -63c0 -35 20 -49 56 -73l126 -84c55 -36 101 -74 101 -139c0 -48 -26 -92 -68 -114zM159 242l156 -105c30 9 46 34 46 63c0 36 -33 58 -66 80l-156 106c-30 -10 -45 -35 -45 -64c0 -36 32 -58 65 -80z
" />
    <glyph glyph-name="quotesingle" unicode="'" horiz-adv-x="148" 
d="M40 395v219h68v-219h-68z" />
    <glyph glyph-name="quotedblleft" unicode="&#x201c;" horiz-adv-x="321" 
d="M149 614l-61 -103c25 -4 44 -22 44 -50c0 -31 -24 -53 -54 -53s-53 21 -53 58c0 21 10 43 22 63l51 85h51zM302 614l-61 -103c25 -4 44 -22 44 -50c0 -31 -24 -53 -54 -53s-53 21 -53 58c0 21 10 43 22 63l51 85h51z" />
    <glyph glyph-name="guillemotleft" unicode="&#xab;" horiz-adv-x="357" 
d="M187 74h-70l-92 148l92 148h70l-92 -148zM332 74h-70l-92 148l92 148h70l-92 -148z" />
    <glyph glyph-name="guilsinglleft" unicode="&#x2039;" horiz-adv-x="215" 
d="M190 74h-73l-92 148l92 148h73l-92 -148z" />
    <glyph glyph-name="guilsinglright" unicode="&#x203a;" horiz-adv-x="215" 
d="M98 74h-73l92 148l-92 148h73l92 -148z" />
    <glyph glyph-name="fi" unicode="&#xfb01;" horiz-adv-x="498" 
d="M431 444v-444h-75v444h75zM442 578c0 -26 -22 -48 -49 -48c-26 0 -48 22 -48 48c0 27 22 48 48 48c27 0 49 -21 49 -48zM289 649v-68c-14 9 -31 12 -47 12c-44 0 -73 -28 -73 -81v-68h100v-64h-100v-380h-74v380h-75v64h75v74c0 89 58 141 136 141c24 0 41 -3 58 -10z
" />
    <glyph glyph-name="fl" unicode="&#xfb02;" horiz-adv-x="498" 
d="M431 650v-650h-75v650h75zM289 649v-68c-14 9 -31 12 -47 12c-44 0 -73 -28 -73 -81v-68h100v-64h-100v-380h-74v380h-75v64h75v74c0 89 58 141 136 141c24 0 41 -3 58 -10z" />
    <glyph glyph-name="endash" unicode="&#x2013;" horiz-adv-x="475" 
d="M40 231v61h395v-61h-395z" />
    <glyph glyph-name="dagger" unicode="&#x2020;" horiz-adv-x="317" 
d="M30 502v56h99v92h58v-92h99v-56h-99v-207h-58v207h-99z" />
    <glyph glyph-name="daggerdbl" unicode="&#x2021;" horiz-adv-x="325" 
d="M34 512v53h99v85h58v-85h101v-53h-101v-80h101v-52h-101v-85h-58v85h-99v52h99v80h-99z" />
    <glyph glyph-name="periodcentered" unicode="&#xb7;" horiz-adv-x="176" 
d="M34 262c0 31 24 55 54 55c29 0 53 -24 53 -55s-24 -54 -53 -54c-30 0 -54 23 -54 54z" />
    <glyph glyph-name="paragraph" unicode="&#xb6;" horiz-adv-x="489" 
d="M353 -90v704h63v-704h-63zM220 -90v391c-98 0 -205 47 -205 157s107 156 205 156h63v-704h-63z" />
    <glyph glyph-name="bullet" unicode="&#x2022;" horiz-adv-x="343" 
d="M308 261c0 -80 -61 -136 -137 -136s-136 56 -136 136s60 136 136 136s137 -56 137 -136z" />
    <glyph glyph-name="quotesinglbase" unicode="&#x201a;" horiz-adv-x="161" 
d="M19 -103l61 103c-25 4 -44 22 -44 50c0 31 24 53 54 53s53 -21 53 -58c0 -21 -10 -43 -22 -63l-51 -85h-51z" />
    <glyph glyph-name="quotedblbase" unicode="&#x201e;" horiz-adv-x="321" 
d="M19 -103l61 103c-25 4 -44 22 -44 50c0 31 24 53 54 53s53 -21 53 -58c0 -21 -10 -43 -22 -63l-51 -85h-51zM172 -103l61 103c-25 4 -44 22 -44 50c0 31 24 53 54 53s53 -21 53 -58c0 -21 -10 -43 -22 -63l-51 -85h-51z" />
    <glyph glyph-name="quotedblright" unicode="&#x201d;" horiz-adv-x="321" 
d="M19 417l61 103c-25 4 -44 22 -44 50c0 31 24 53 54 53s53 -21 53 -58c0 -21 -10 -43 -22 -63l-51 -85h-51zM172 417l61 103c-25 4 -44 22 -44 50c0 31 24 53 54 53s53 -21 53 -58c0 -21 -10 -43 -22 -63l-51 -85h-51z" />
    <glyph glyph-name="guillemotright" unicode="&#xbb;" horiz-adv-x="357" 
d="M240 74h-70l92 148l-92 148h70l92 -148zM95 74h-70l92 148l-92 148h70l92 -148z" />
    <glyph glyph-name="ellipsis" unicode="&#x2026;" horiz-adv-x="554" 
d="M32 49c0 31 24 55 54 55c29 0 53 -24 53 -55s-24 -54 -53 -54c-30 0 -54 23 -54 54zM224 49c0 31 24 55 53 55c30 0 54 -24 54 -55s-24 -54 -54 -54c-29 0 -53 23 -53 54zM415 49c0 31 24 55 54 55c29 0 53 -24 53 -55s-24 -54 -53 -54c-30 0 -54 23 -54 54z" />
    <glyph glyph-name="perthousand" unicode="&#x2030;" horiz-adv-x="941" 
d="M99 0l383 614h62l-383 -614h-62zM33 490c0 74 59 133 133 133s133 -59 133 -133s-59 -133 -133 -133s-133 59 -133 133zM609 124c0 -74 -59 -133 -133 -133s-133 59 -133 133s59 133 133 133s133 -59 133 -133zM550 124c0 41 -33 74 -74 74s-75 -33 -75 -74
s34 -75 75 -75s74 34 74 75zM908 124c0 -74 -59 -133 -133 -133s-133 59 -133 133s59 133 133 133s133 -59 133 -133zM849 124c0 41 -33 74 -74 74s-75 -33 -75 -74s34 -75 75 -75s74 34 74 75zM92 490c0 -41 33 -74 74 -74s75 33 75 74s-34 75 -75 75s-74 -34 -74 -75z" />
    <glyph glyph-name="questiondown" unicode="&#xbf;" horiz-adv-x="432" 
d="M262 469c0 -31 -24 -55 -53 -55c-30 0 -54 24 -54 55s24 54 54 54c29 0 53 -23 53 -54zM24 67c0 74 55 126 102 176c34 36 42 58 43 82h74c-3 -50 -18 -76 -58 -120c-35 -40 -85 -78 -85 -137c0 -63 43 -103 111 -103c73 0 114 51 120 123h81
c-12 -114 -89 -193 -201 -193c-117 0 -187 67 -187 172z" />
    <glyph glyph-name="grave" unicode="`" 
d="M329 516h-69l-89 134h78z" />
    <glyph glyph-name="acute" unicode="&#xb4;" 
d="M240 516h-69l80 134h78z" />
    <glyph glyph-name="circumflex" unicode="&#x2c6;" 
d="M285 645l92 -136h-65l-62 88l-62 -88h-65l92 136h70z" />
    <glyph glyph-name="tilde" unicode="&#x2dc;" 
d="M333 633h48c0 -71 -26 -118 -76 -118c-46 0 -72 58 -104 58c-23 0 -34 -21 -34 -55h-48c0 71 26 118 76 118c47 0 72 -58 104 -58c22 0 33 21 34 55z" />
    <glyph glyph-name="macron" unicode="&#xaf;" 
d="M143 530v61h213v-61h-213z" />
    <glyph glyph-name="breve" unicode="&#x2d8;" 
d="M250 500c-67 0 -114 45 -114 128h57c0 -45 20 -73 57 -73s57 28 57 73h57c0 -83 -47 -128 -114 -128z" />
    <glyph glyph-name="dotaccent" unicode="&#x2d9;" 
d="M298 578c0 -26 -22 -48 -48 -48s-48 22 -48 48c0 27 22 48 48 48s48 -21 48 -48z" />
    <glyph glyph-name="dieresis" unicode="&#xa8;" 
d="M133 571c0 27 21 47 47 47c25 0 46 -20 46 -47c0 -25 -21 -46 -46 -46c-26 0 -47 21 -47 46zM274 571c0 27 20 47 45 47c26 0 47 -20 47 -47c0 -25 -21 -46 -47 -46c-25 0 -45 21 -45 46z" />
    <glyph glyph-name="ring" unicode="&#x2da;" 
d="M337 580c0 -49 -38 -86 -87 -86s-87 37 -87 86s38 86 87 86s87 -37 87 -86zM295 580c0 26 -20 45 -45 45s-45 -19 -45 -45s20 -45 45 -45s45 19 45 45z" />
    <glyph glyph-name="cedilla" unicode="&#xb8;" 
d="M250 -183h-71l66 132h74z" />
    <glyph glyph-name="hungarumlaut" unicode="&#x2dd;" 
d="M188 516h-63l66 134h65zM307 516h-63l67 134h64z" />
    <glyph glyph-name="ogonek" unicode="&#x2db;" 
d="M249 4h56c-40 -66 -52 -86 -52 -110c0 -17 9 -26 22 -26s23 5 37 15v-50c-14 -11 -31 -19 -52 -19c-43 0 -66 26 -66 66c0 38 22 71 55 124z" />
    <glyph glyph-name="caron" unicode="&#x2c7;" 
d="M377 646l-92 -136h-70l-92 136h65l62 -87l62 87h65z" />
    <glyph glyph-name="emdash" unicode="&#x2014;" horiz-adv-x="846" 
d="M40 231v61h766v-61h-766z" />
    <glyph glyph-name="AE" unicode="&#xc6;" horiz-adv-x="862" 
d="M390 614h421v-70h-297v-194h268v-70h-268v-209h297v-71h-374v185h-222l-112 -185h-82zM437 550l-180 -296h180v296z" />
    <glyph glyph-name="ordfeminine" unicode="&#xaa;" horiz-adv-x="292" 
d="M264 321h-65v21c-11 -12 -42 -26 -76 -26c-60 0 -110 34 -110 94c0 56 50 94 113 94c30 0 60 -13 73 -23v33c0 31 -19 54 -56 54c-27 0 -46 -12 -53 -35h-64c10 53 55 91 119 91c75 0 119 -42 119 -111v-192zM199 397v27c-8 18 -34 31 -61 31c-30 0 -60 -14 -60 -44
c0 -31 30 -45 60 -45c27 0 53 13 61 31z" />
    <glyph glyph-name="Lslash" unicode="&#x141;" horiz-adv-x="523" 
d="M30 226v73l62 25v290h79v-260l154 62v-72l-154 -63v-210h313v-71h-392v251z" />
    <glyph glyph-name="Oslash" unicode="&#xd8;" horiz-adv-x="639" 
d="M56 18l56 71c-44 55 -70 130 -70 218c0 186 116 316 277 316c66 0 124 -22 170 -60l47 60l46 -33l-54 -67c44 -55 69 -130 69 -216c0 -185 -116 -316 -278 -316c-64 0 -121 20 -166 57l-50 -63zM121 307c0 -62 13 -117 39 -158l284 357c-32 29 -75 46 -125 46
c-118 0 -198 -101 -198 -245zM518 307c0 60 -13 114 -38 155l-282 -357c31 -28 72 -43 121 -43c119 0 199 101 199 245z" />
    <glyph glyph-name="OE" unicode="&#x152;" horiz-adv-x="830" 
d="M780 614v-70h-298v-194h268v-70h-268v-209h298v-71h-445c-180 0 -298 120 -298 307s118 307 298 307h445zM337 71h68v473h-68c-140 0 -221 -93 -221 -237s81 -236 221 -236z" />
    <glyph glyph-name="ordmasculine" unicode="&#xba;" horiz-adv-x="310" 
d="M296 469c0 -91 -57 -155 -141 -155s-142 64 -142 155s58 155 142 155s141 -64 141 -155zM228 469c0 57 -28 97 -73 97s-73 -40 -73 -97s28 -96 73 -96s73 39 73 96z" />
    <glyph glyph-name="ae" unicode="&#xe6;" horiz-adv-x="731" 
d="M199 55c58 0 99 34 116 81v71h-105c-54 0 -105 -23 -105 -75s44 -77 94 -77zM621 133h71c-16 -84 -80 -142 -180 -142c-69 0 -126 31 -161 84c-33 -45 -85 -83 -158 -83c-89 0 -159 53 -159 136c0 86 75 138 171 138h110v27c0 55 -33 95 -97 95c-47 0 -79 -20 -93 -61
h-72c15 75 81 126 166 126c72 0 122 -31 144 -81c33 48 84 81 147 81c122 0 188 -89 188 -218v-27h-315c2 -96 55 -153 129 -153c55 0 97 28 109 78zM511 389c-67 0 -115 -46 -126 -124h237c-2 66 -37 124 -111 124z" />
    <glyph glyph-name="dotlessi" unicode="&#x131;" horiz-adv-x="209" 
d="M142 444v-444h-75v444h75z" />
    <glyph glyph-name="lslash" unicode="&#x142;" horiz-adv-x="246" 
d="M161 650v-236l60 39v-68l-60 -39v-346h-75v310l-56 -35v67l56 36v272h75z" />
    <glyph glyph-name="oslash" unicode="&#xf8;" horiz-adv-x="488" 
d="M40 1l49 63c-32 40 -49 94 -49 158c0 136 82 231 204 231c45 0 85 -13 117 -37l42 53l41 -29l-46 -60c31 -40 50 -95 50 -158c0 -136 -83 -231 -204 -231c-47 0 -87 13 -119 38l-44 -57zM373 222c0 38 -8 72 -22 99l-184 -238c20 -17 46 -26 77 -26c80 0 129 68 129 165z
M115 222c0 -38 7 -72 20 -98l184 237c-20 17 -45 26 -75 26c-80 0 -129 -68 -129 -165z" />
    <glyph glyph-name="oe" unicode="&#x153;" horiz-adv-x="787" 
d="M568 -9c-72 0 -131 34 -166 91c-34 -57 -92 -91 -163 -91c-122 0 -204 95 -204 231s82 231 204 231c72 0 130 -36 163 -93c35 57 91 93 165 93c122 0 187 -89 187 -218v-27h-315c2 -95 55 -153 129 -153c56 0 97 28 109 78h71c-16 -84 -79 -142 -180 -142zM367 222
c0 97 -48 165 -128 165s-128 -68 -128 -165s48 -165 128 -165s128 68 128 165zM567 389c-67 0 -114 -47 -125 -124h236c-2 66 -36 124 -111 124z" />
    <glyph glyph-name="germandbls" unicode="&#xdf;" horiz-adv-x="510" 
d="M342 367c70 -16 132 -81 132 -179c0 -123 -80 -194 -192 -194c-33 0 -60 5 -86 17v69c21 -13 49 -18 80 -18c78 0 126 49 126 133c0 85 -60 135 -154 135h-42v66h42c64 0 106 39 106 101c0 56 -39 97 -101 97c-77 0 -112 -56 -112 -131v-463h-74v463
c0 115 69 196 185 196c112 0 174 -70 174 -158c0 -70 -38 -116 -84 -134z" />
    <glyph glyph-name="onesuperior" unicode="&#xb9;" horiz-adv-x="221" 
d="M170 615v-333h-63v259l-88 -44v64l109 54h42z" />
    <glyph glyph-name="trademark" unicode="&#x2122;" horiz-adv-x="586" 
d="M18 568v46h217v-46h-81v-208h-54v208h-82zM427 360h-36l-65 168v-168h-50v254h64l69 -180l69 180h64v-254h-50v168z" />
    <glyph glyph-name="Eth" unicode="&#xd0;" horiz-adv-x="620" 
d="M32 284v67h56v263h197c180 0 298 -120 298 -307s-118 -307 -298 -307h-197v284h-56zM167 71h117c139 0 221 92 221 236s-82 237 -221 237h-117v-193h123v-67h-123v-213z" />
    <glyph glyph-name="onehalf" unicode="&#xbd;" horiz-adv-x="682" 
d="M569 614l-429 -614h-67l429 614h67zM191 615v-333h-62v259l-88 -44v64l108 54h42zM560 237c0 27 -18 44 -45 44c-30 0 -49 -23 -51 -52h-65c6 62 49 109 115 109c67 0 109 -40 109 -99c0 -43 -31 -74 -64 -109l-74 -76h141v-54h-226v43l111 117c31 32 49 53 49 77z" />
    <glyph glyph-name="plusminus" unicode="&#xb1;" horiz-adv-x="544" 
d="M241 518h62v-129h164v-62h-164v-129h-62v129h-163v62h163v129zM78 88v62h389v-62h-389z" />
    <glyph glyph-name="Thorn" unicode="&#xde;" horiz-adv-x="537" 
d="M303 131h-151v-131h-79v614h79v-115h151c124 0 202 -63 202 -184c0 -120 -78 -184 -202 -184zM427 315c0 70 -43 115 -126 115h-149v-230h149c83 0 126 46 126 115z" />
    <glyph glyph-name="onequarter" unicode="&#xbc;" horiz-adv-x="667" 
d="M569 614l-429 -614h-67l429 614h67zM191 615v-333h-62v259l-88 -44v64l108 54h42zM536 333l-107 -211h81v67h56v-67h52v-53h-52v-69h-56v69h-150v47l114 217h62z" />
    <glyph glyph-name="divide" unicode="&#xf7;" horiz-adv-x="540" 
d="M73 266v62h394v-62h-394zM220 458c0 28 22 51 50 51s51 -23 51 -51s-23 -51 -51 -51s-50 23 -50 51zM220 136c0 28 22 51 50 51s51 -23 51 -51s-23 -51 -51 -51s-50 23 -50 51z" />
    <glyph glyph-name="degree" unicode="&#xb0;" horiz-adv-x="336" 
d="M100 499c0 -38 31 -68 68 -68s68 30 68 68s-31 69 -68 69s-68 -31 -68 -69zM291 499c0 -69 -55 -124 -123 -124s-123 55 -123 124s55 124 123 124s123 -55 123 -124z" />
    <glyph glyph-name="thorn" unicode="&#xfe;" horiz-adv-x="502" 
d="M142 52v-222h-75v820h75v-258c23 32 70 61 125 61c131 0 200 -108 200 -231s-69 -231 -200 -231c-55 0 -102 29 -125 61zM142 312v-180c23 -46 67 -73 114 -73c85 0 135 69 135 163s-50 163 -135 163c-47 0 -91 -27 -114 -73z" />
    <glyph glyph-name="threequarters" unicode="&#xbe;" horiz-adv-x="706" 
d="M608 614l-429 -614h-67l429 614h67zM140 426v49h24c29 0 51 16 51 45c0 26 -19 45 -49 45c-28 0 -49 -21 -52 -49h-63c8 58 49 103 113 103c69 0 110 -40 110 -96c0 -34 -19 -62 -45 -73c31 -10 50 -39 50 -72c0 -59 -42 -102 -113 -102s-114 42 -120 106h65
c4 -31 24 -52 56 -52s53 19 53 49s-23 47 -54 47h-26zM575 333l-107 -211h81v67h56v-67h52v-53h-52v-69h-56v69h-150v47l114 217h62z" />
    <glyph glyph-name="twosuperior" unicode="&#xb2;" horiz-adv-x="276" 
d="M184 519c0 27 -19 44 -46 44c-30 0 -48 -24 -50 -52h-66c7 62 50 108 116 108c67 0 108 -39 108 -98c0 -43 -31 -74 -64 -109l-74 -76h141v-54h-226v43l112 117c31 32 49 52 49 77z" />
    <glyph glyph-name="registered" unicode="&#xae;" horiz-adv-x="412" 
d="M387 440c0 -106 -82 -183 -181 -183s-181 77 -181 183s82 183 181 183s181 -77 181 -183zM356 440c0 90 -67 154 -150 154s-151 -64 -151 -154c0 -89 68 -153 151 -153s150 64 150 153zM202 414h-25v-68h-42v192h84c42 0 68 -23 68 -63c0 -30 -16 -50 -42 -57l49 -72h-47
zM247 475c0 15 -11 27 -30 27h-40v-53h40c19 0 30 12 30 26z" />
    <glyph glyph-name="minus" unicode="&#x2212;" horiz-adv-x="540" 
d="M73 266v62h394v-62h-394z" />
    <glyph glyph-name="eth" unicode="&#xf0;" horiz-adv-x="478" 
d="M139 494l-18 47l80 26c-31 27 -65 54 -100 79v4h98c26 -18 51 -37 74 -59l85 29l17 -47l-63 -21c80 -90 131 -203 131 -326c0 -141 -83 -235 -204 -235c-122 0 -204 94 -204 229c0 136 82 230 196 230c47 0 80 -19 103 -44h3c-15 34 -49 77 -94 122zM367 220
c0 97 -48 164 -128 164s-128 -67 -128 -164s48 -163 128 -163s128 66 128 163z" />
    <glyph glyph-name="multiply" unicode="&#xd7;" horiz-adv-x="470" 
d="M193 295l-122 121l43 42l120 -122l122 122l43 -42l-122 -121l122 -122l-43 -43l-122 122l-120 -122l-43 43z" />
    <glyph glyph-name="copyright" unicode="&#xa9;" horiz-adv-x="706" 
d="M669 307c0 -184 -142 -316 -316 -316s-316 132 -316 316s142 316 316 316s316 -132 316 -316zM630 307c0 161 -125 277 -277 277s-277 -116 -277 -277s125 -277 277 -277s277 116 277 277zM176 309c0 119 76 199 181 199c89 0 143 -52 158 -127h-74c-13 38 -42 59 -84 59
c-64 0 -107 -53 -107 -131s43 -131 107 -131c42 0 71 21 84 59h74c-15 -75 -70 -127 -158 -127c-105 0 -181 80 -181 199z" />
    <glyph glyph-name="Aacute" unicode="&#xc1;" horiz-adv-x="596" 
d="M261 614h74l240 -614h-80l-71 185h-253l-70 -185h-80zM297 516l-100 -262h200zM333 668h-76l80 117h87z" />
    <glyph glyph-name="Acircumflex" unicode="&#xc2;" horiz-adv-x="596" 
d="M261 614h74l240 -614h-80l-71 185h-253l-70 -185h-80zM297 516l-100 -262h200zM333 791l92 -122h-68l-59 71l-59 -71h-68l92 122h70z" />
    <glyph glyph-name="Adieresis" unicode="&#xc4;" horiz-adv-x="596" 
d="M261 614h74l240 -614h-80l-71 185h-253l-70 -185h-80zM297 516l-100 -262h200zM182 722c0 26 21 46 47 46c25 0 46 -20 46 -46s-21 -46 -46 -46c-26 0 -47 20 -47 46zM323 722c0 26 20 46 45 46c26 0 47 -20 47 -46s-21 -46 -47 -46c-25 0 -45 20 -45 46z" />
    <glyph glyph-name="Agrave" unicode="&#xc0;" horiz-adv-x="596" 
d="M261 614h74l240 -614h-80l-71 185h-253l-70 -185h-80zM297 516l-100 -262h200zM337 668h-75l-92 117h87z" />
    <glyph glyph-name="Aring" unicode="&#xc5;" horiz-adv-x="596" 
d="M261 614h74l240 -614h-80l-71 185h-253l-70 -185h-80zM297 516l-100 -262h200zM385 734c0 -48 -38 -86 -87 -86s-87 38 -87 86c0 49 38 87 87 87s87 -38 87 -87zM343 734c0 26 -20 46 -45 46s-45 -20 -45 -46c0 -25 20 -45 45 -45s45 20 45 45z" />
    <glyph glyph-name="Atilde" unicode="&#xc3;" horiz-adv-x="596" 
d="M261 614h74l240 -614h-80l-71 185h-253l-70 -185h-80zM297 516l-100 -262h200zM384 784h48c0 -71 -26 -119 -76 -119c-49 0 -74 56 -110 56c-23 0 -34 -19 -34 -53h-49c0 71 26 119 76 119s74 -56 111 -56c22 0 33 19 34 53z" />
    <glyph glyph-name="Ccedilla" unicode="&#xc7;" horiz-adv-x="586" 
d="M37 307c0 191 120 316 275 316c129 0 214 -75 239 -189h-78c-25 71 -76 118 -161 118c-117 0 -196 -99 -196 -245c0 -145 78 -245 196 -245c85 0 136 47 161 119h78c-25 -115 -111 -190 -239 -190c-155 0 -275 125 -275 316zM287 -183h-71l66 132h74z" />
    <glyph glyph-name="Eacute" unicode="&#xc9;" horiz-adv-x="515" 
d="M305 668h-76l80 117h87zM73 614h391v-70h-313v-194h284v-70h-284v-209h313v-71h-391v614z" />
    <glyph glyph-name="Ecircumflex" unicode="&#xca;" horiz-adv-x="515" 
d="M73 614h391v-70h-313v-194h284v-70h-284v-209h313v-71h-391v614zM308 791l92 -122h-68l-59 71l-59 -71h-68l92 122h70z" />
    <glyph glyph-name="Edieresis" unicode="&#xcb;" horiz-adv-x="515" 
d="M157 722c0 26 21 46 47 46c25 0 46 -20 46 -46s-21 -46 -46 -46c-26 0 -47 20 -47 46zM298 722c0 26 20 46 45 46c26 0 47 -20 47 -46s-21 -46 -47 -46c-25 0 -45 20 -45 46zM73 614h391v-70h-313v-194h284v-70h-284v-209h313v-71h-391v614z" />
    <glyph glyph-name="Egrave" unicode="&#xc8;" horiz-adv-x="515" 
d="M313 668h-75l-92 117h87zM73 614h391v-70h-313v-194h284v-70h-284v-209h313v-71h-391v614z" />
    <glyph glyph-name="Iacute" unicode="&#xcd;" horiz-adv-x="225" 
d="M152 614v-614h-79v614h79zM144 668h-76l80 117h87z" />
    <glyph glyph-name="Icircumflex" unicode="&#xce;" horiz-adv-x="225" 
d="M152 614v-614h-79v614h79zM147 791l92 -122h-68l-59 71l-59 -71h-68l92 122h70z" />
    <glyph glyph-name="Idieresis" unicode="&#xcf;" horiz-adv-x="225" 
d="M152 614v-614h-79v614h79zM-4 722c0 26 21 46 47 46c25 0 46 -20 46 -46s-21 -46 -46 -46c-26 0 -47 20 -47 46zM137 722c0 26 20 46 45 46c26 0 47 -20 47 -46s-21 -46 -47 -46c-25 0 -45 20 -45 46z" />
    <glyph glyph-name="Igrave" unicode="&#xcc;" horiz-adv-x="225" 
d="M152 614v-614h-79v614h79zM153 668h-75l-92 117h87z" />
    <glyph glyph-name="Ntilde" unicode="&#xd1;" horiz-adv-x="623" 
d="M398 784h48c0 -71 -26 -119 -76 -119c-49 0 -74 56 -110 56c-23 0 -34 -19 -34 -53h-49c0 71 26 119 76 119s74 -56 111 -56c22 0 33 19 34 53zM550 614v-614h-58l-343 488v-488h-76v614h75l327 -467v467h75z" />
    <glyph glyph-name="Oacute" unicode="&#xd3;" horiz-adv-x="629" 
d="M346 668h-76l80 117h87zM592 307c0 -185 -116 -316 -278 -316c-161 0 -277 131 -277 316c0 186 116 316 277 316c162 0 278 -130 278 -316zM513 307c0 144 -80 245 -199 245c-118 0 -198 -101 -198 -245s80 -245 198 -245c119 0 199 101 199 245z" />
    <glyph glyph-name="Ocircumflex" unicode="&#xd4;" horiz-adv-x="629" 
d="M592 307c0 -185 -116 -316 -278 -316c-161 0 -277 131 -277 316c0 186 116 316 277 316c162 0 278 -130 278 -316zM513 307c0 144 -80 245 -199 245c-118 0 -198 -101 -198 -245s80 -245 198 -245c119 0 199 101 199 245zM349 791l92 -122h-68l-59 71l-59 -71h-68l92 122
h70z" />
    <glyph glyph-name="Odieresis" unicode="&#xd6;" horiz-adv-x="629" 
d="M198 722c0 26 21 46 47 46c25 0 46 -20 46 -46s-21 -46 -46 -46c-26 0 -47 20 -47 46zM339 722c0 26 20 46 45 46c26 0 47 -20 47 -46s-21 -46 -47 -46c-25 0 -45 20 -45 46zM592 307c0 -185 -116 -316 -278 -316c-161 0 -277 131 -277 316c0 186 116 316 277 316
c162 0 278 -130 278 -316zM513 307c0 144 -80 245 -199 245c-118 0 -198 -101 -198 -245s80 -245 198 -245c119 0 199 101 199 245z" />
    <glyph glyph-name="Ograve" unicode="&#xd2;" horiz-adv-x="629" 
d="M355 668h-75l-92 117h87zM592 307c0 -185 -116 -316 -278 -316c-161 0 -277 131 -277 316c0 186 116 316 277 316c162 0 278 -130 278 -316zM513 307c0 144 -80 245 -199 245c-118 0 -198 -101 -198 -245s80 -245 198 -245c119 0 199 101 199 245z" />
    <glyph glyph-name="Otilde" unicode="&#xd5;" horiz-adv-x="629" 
d="M401 784h48c0 -71 -26 -119 -76 -119c-49 0 -74 56 -110 56c-23 0 -34 -19 -34 -53h-49c0 71 26 119 76 119s74 -56 111 -56c22 0 33 19 34 53zM592 307c0 -185 -116 -316 -278 -316c-161 0 -277 131 -277 316c0 186 116 316 277 316c162 0 278 -130 278 -316zM513 307
c0 144 -80 245 -199 245c-118 0 -198 -101 -198 -245s80 -245 198 -245c119 0 199 101 199 245z" />
    <glyph glyph-name="Scaron" unicode="&#x160;" horiz-adv-x="509" 
d="M216 666l-92 121h68l59 -71l59 71h68l-92 -121h-70zM23 160h80c23 -68 81 -102 156 -102c80 0 136 39 136 107c0 48 -27 79 -98 97l-110 29c-85 22 -147 65 -147 158c0 104 86 174 202 174c127 0 202 -65 225 -162h-79c-19 55 -65 95 -146 95c-73 0 -127 -38 -127 -101
c0 -52 34 -77 98 -94l105 -27c98 -25 153 -78 153 -165c0 -111 -90 -178 -212 -178s-213 61 -236 169z" />
    <glyph glyph-name="Uacute" unicode="&#xda;" horiz-adv-x="607" 
d="M335 668h-76l80 117h87zM303 -9c-139 0 -240 84 -240 253v370h78v-361c0 -131 63 -192 162 -192s162 61 162 192v361h79v-371c0 -168 -101 -252 -241 -252z" />
    <glyph glyph-name="Ucircumflex" unicode="&#xdb;" horiz-adv-x="607" 
d="M303 -9c-139 0 -240 84 -240 253v370h78v-361c0 -131 63 -192 162 -192s162 61 162 192v361h79v-371c0 -168 -101 -252 -241 -252zM338 791l92 -122h-68l-59 71l-59 -71h-68l92 122h70z" />
    <glyph glyph-name="Udieresis" unicode="&#xdc;" horiz-adv-x="607" 
d="M187 722c0 26 21 46 47 46c25 0 46 -20 46 -46s-21 -46 -46 -46c-26 0 -47 20 -47 46zM328 722c0 26 20 46 45 46c26 0 47 -20 47 -46s-21 -46 -47 -46c-25 0 -45 20 -45 46zM303 -9c-139 0 -240 84 -240 253v370h78v-361c0 -131 63 -192 162 -192s162 61 162 192v361h79
v-371c0 -168 -101 -252 -241 -252z" />
    <glyph glyph-name="Ugrave" unicode="&#xd9;" horiz-adv-x="607" 
d="M344 668h-75l-92 117h87zM303 -9c-139 0 -240 84 -240 253v370h78v-361c0 -131 63 -192 162 -192s162 61 162 192v361h79v-371c0 -168 -101 -252 -241 -252z" />
    <glyph glyph-name="Yacute" unicode="&#xdd;" horiz-adv-x="557" 
d="M280 324l177 290h84l-224 -361v-253h-78v253l-222 361h86zM311 668h-76l80 117h87z" />
    <glyph glyph-name="Ydieresis" unicode="&#x178;" horiz-adv-x="557" 
d="M280 324l177 290h84l-224 -361v-253h-78v253l-222 361h86zM162 722c0 26 21 46 47 46c25 0 46 -20 46 -46s-21 -46 -46 -46c-26 0 -47 20 -47 46zM303 722c0 26 20 46 45 46c26 0 47 -20 47 -46s-21 -46 -47 -46c-25 0 -45 20 -45 46z" />
    <glyph glyph-name="Zcaron" unicode="&#x17d;" horiz-adv-x="534" 
d="M252 666l-92 121h68l59 -71l59 71h68l-92 -121h-70zM492 71v-71h-451v57l349 487h-344v70h442v-56l-348 -487h352z" />
    <glyph glyph-name="aacute" unicode="&#xe1;" horiz-adv-x="450" 
d="M389 0h-72v33c-17 -18 -64 -41 -117 -41c-90 0 -165 54 -165 142c0 83 75 139 170 139c46 0 93 -19 112 -36v56c0 55 -34 95 -98 95c-47 0 -77 -20 -91 -61h-74c15 75 81 126 166 126c106 0 169 -60 169 -157v-296zM317 110v46c-13 33 -58 55 -104 55
c-54 0 -106 -24 -106 -77c0 -54 52 -79 106 -79c46 0 91 22 104 55zM260 516h-69l80 134h78z" />
    <glyph glyph-name="acircumflex" unicode="&#xe2;" horiz-adv-x="450" 
d="M264 645l92 -136h-65l-62 88l-62 -88h-65l92 136h70zM389 0h-72v33c-17 -18 -64 -41 -117 -41c-90 0 -165 54 -165 142c0 83 75 139 170 139c46 0 93 -19 112 -36v56c0 55 -34 95 -98 95c-47 0 -77 -20 -91 -61h-74c15 75 81 126 166 126c106 0 169 -60 169 -157v-296z
M317 110v46c-13 33 -58 55 -104 55c-54 0 -106 -24 -106 -77c0 -54 52 -79 106 -79c46 0 91 22 104 55z" />
    <glyph glyph-name="adieresis" unicode="&#xe4;" horiz-adv-x="450" 
d="M113 571c0 27 21 47 47 47c25 0 46 -20 46 -47c0 -25 -21 -46 -46 -46c-26 0 -47 21 -47 46zM254 571c0 27 20 47 45 47c26 0 47 -20 47 -47c0 -25 -21 -46 -47 -46c-25 0 -45 21 -45 46zM389 0h-72v33c-17 -18 -64 -41 -117 -41c-90 0 -165 54 -165 142
c0 83 75 139 170 139c46 0 93 -19 112 -36v56c0 55 -34 95 -98 95c-47 0 -77 -20 -91 -61h-74c15 75 81 126 166 126c106 0 169 -60 169 -157v-296zM317 110v46c-13 33 -58 55 -104 55c-54 0 -106 -24 -106 -77c0 -54 52 -79 106 -79c46 0 91 22 104 55z" />
    <glyph glyph-name="agrave" unicode="&#xe0;" horiz-adv-x="450" 
d="M389 0h-72v33c-17 -18 -64 -41 -117 -41c-90 0 -165 54 -165 142c0 83 75 139 170 139c46 0 93 -19 112 -36v56c0 55 -34 95 -98 95c-47 0 -77 -20 -91 -61h-74c15 75 81 126 166 126c106 0 169 -60 169 -157v-296zM317 110v46c-13 33 -58 55 -104 55
c-54 0 -106 -24 -106 -77c0 -54 52 -79 106 -79c46 0 91 22 104 55zM271 516h-69l-89 134h78z" />
    <glyph glyph-name="aring" unicode="&#xe5;" horiz-adv-x="450" 
d="M389 0h-72v33c-17 -18 -64 -41 -117 -41c-90 0 -165 54 -165 142c0 83 75 139 170 139c46 0 93 -19 112 -36v56c0 55 -34 95 -98 95c-47 0 -77 -20 -91 -61h-74c15 75 81 126 166 126c106 0 169 -60 169 -157v-296zM317 110v46c-13 33 -58 55 -104 55
c-54 0 -106 -24 -106 -77c0 -54 52 -79 106 -79c46 0 91 22 104 55zM314 580c0 -49 -38 -86 -87 -86s-87 37 -87 86s38 86 87 86s87 -37 87 -86zM272 580c0 26 -20 45 -45 45s-45 -19 -45 -45s20 -45 45 -45s45 19 45 45z" />
    <glyph glyph-name="atilde" unicode="&#xe3;" horiz-adv-x="450" 
d="M389 0h-72v33c-17 -18 -64 -41 -117 -41c-90 0 -165 54 -165 142c0 83 75 139 170 139c46 0 93 -19 112 -36v56c0 55 -34 95 -98 95c-47 0 -77 -20 -91 -61h-74c15 75 81 126 166 126c106 0 169 -60 169 -157v-296zM317 110v46c-13 33 -58 55 -104 55
c-54 0 -106 -24 -106 -77c0 -54 52 -79 106 -79c46 0 91 22 104 55zM312 633h48c0 -71 -26 -118 -76 -118c-46 0 -72 58 -104 58c-23 0 -34 -21 -34 -55h-48c0 71 26 118 76 118c47 0 72 -58 104 -58c22 0 33 21 34 55z" />
    <glyph glyph-name="ccedilla" unicode="&#xe7;" horiz-adv-x="446" 
d="M35 222c0 138 83 231 202 231c100 0 163 -58 178 -143h-77c-10 48 -48 77 -101 77c-76 0 -126 -68 -126 -165s50 -165 126 -165c53 0 91 29 101 77h77c-15 -85 -78 -143 -178 -143c-119 0 -202 93 -202 231zM212 -183h-71l66 132h74z" />
    <glyph glyph-name="eacute" unicode="&#xe9;" horiz-adv-x="457" 
d="M270 516h-69l80 134h78zM347 133h71c-16 -84 -79 -142 -179 -142c-121 0 -204 93 -204 230c0 133 81 232 202 232c122 0 187 -89 187 -218v-27h-314c1 -95 54 -153 129 -153c55 0 96 28 108 78zM238 389c-67 0 -115 -46 -126 -124h236c-1 66 -36 124 -110 124z" />
    <glyph glyph-name="ecircumflex" unicode="&#xea;" horiz-adv-x="457" 
d="M275 645l92 -136h-65l-62 88l-62 -88h-65l92 136h70zM347 133h71c-16 -84 -79 -142 -179 -142c-121 0 -204 93 -204 230c0 133 81 232 202 232c122 0 187 -89 187 -218v-27h-314c1 -95 54 -153 129 -153c55 0 96 28 108 78zM238 389c-67 0 -115 -46 -126 -124h236
c-1 66 -36 124 -110 124z" />
    <glyph glyph-name="edieresis" unicode="&#xeb;" horiz-adv-x="457" 
d="M125 571c0 27 21 47 47 47c25 0 46 -20 46 -47c0 -25 -21 -46 -46 -46c-26 0 -47 21 -47 46zM266 571c0 27 20 47 45 47c26 0 47 -20 47 -47c0 -25 -21 -46 -47 -46c-25 0 -45 21 -45 46zM347 133h71c-16 -84 -79 -142 -179 -142c-121 0 -204 93 -204 230
c0 133 81 232 202 232c122 0 187 -89 187 -218v-27h-314c1 -95 54 -153 129 -153c55 0 96 28 108 78zM238 389c-67 0 -115 -46 -126 -124h236c-1 66 -36 124 -110 124z" />
    <glyph glyph-name="egrave" unicode="&#xe8;" horiz-adv-x="457" 
d="M347 133h71c-16 -84 -79 -142 -179 -142c-121 0 -204 93 -204 230c0 133 81 232 202 232c122 0 187 -89 187 -218v-27h-314c1 -95 54 -153 129 -153c55 0 96 28 108 78zM238 389c-67 0 -115 -46 -126 -124h236c-1 66 -36 124 -110 124zM279 516h-69l-89 134h78z" />
    <glyph glyph-name="iacute" unicode="&#xed;" horiz-adv-x="209" 
d="M134 516h-69l80 134h78zM142 444v-444h-75v444h75z" />
    <glyph glyph-name="icircumflex" unicode="&#xee;" horiz-adv-x="209" 
d="M139 645l74 -136h-64l-45 85l-45 -85h-63l74 136h69zM142 444v-444h-75v444h75z" />
    <glyph glyph-name="idieresis" unicode="&#xef;" horiz-adv-x="209" 
d="M-3 571c0 27 20 47 46 47c25 0 46 -20 46 -47c0 -25 -21 -46 -46 -46c-26 0 -46 21 -46 46zM121 571c0 27 20 47 45 47c26 0 47 -20 47 -47c0 -25 -21 -46 -47 -46c-25 0 -45 21 -45 46zM142 444v-444h-75v444h75z" />
    <glyph glyph-name="igrave" unicode="&#xec;" horiz-adv-x="209" 
d="M142 444v-444h-75v444h75zM143 516h-69l-89 134h78z" />
    <glyph glyph-name="ntilde" unicode="&#xf1;" horiz-adv-x="489" 
d="M67 0v444h75v-56c26 35 74 65 131 65c101 0 156 -65 156 -162v-291h-76v279c0 62 -31 105 -98 105c-52 0 -97 -35 -113 -83v-301h-75zM331 633h48c0 -71 -26 -118 -76 -118c-46 0 -72 58 -104 58c-23 0 -34 -21 -34 -55h-48c0 71 26 118 76 118c47 0 72 -58 104 -58
c22 0 33 21 34 55z" />
    <glyph glyph-name="oacute" unicode="&#xf3;" horiz-adv-x="478" 
d="M268 516h-69l80 134h78zM443 222c0 -136 -83 -231 -204 -231c-122 0 -204 95 -204 231s82 231 204 231c121 0 204 -95 204 -231zM367 222c0 97 -48 165 -128 165s-128 -68 -128 -165s48 -165 128 -165s128 68 128 165z" />
    <glyph glyph-name="ocircumflex" unicode="&#xf4;" horiz-adv-x="478" 
d="M274 645l92 -136h-65l-62 88l-62 -88h-65l92 136h70zM443 222c0 -136 -83 -231 -204 -231c-122 0 -204 95 -204 231s82 231 204 231c121 0 204 -95 204 -231zM367 222c0 97 -48 165 -128 165s-128 -68 -128 -165s48 -165 128 -165s128 68 128 165z" />
    <glyph glyph-name="odieresis" unicode="&#xf6;" horiz-adv-x="478" 
d="M123 571c0 27 21 47 47 47c25 0 46 -20 46 -47c0 -25 -21 -46 -46 -46c-26 0 -47 21 -47 46zM264 571c0 27 20 47 45 47c26 0 47 -20 47 -47c0 -25 -21 -46 -47 -46c-25 0 -45 21 -45 46zM443 222c0 -136 -83 -231 -204 -231c-122 0 -204 95 -204 231s82 231 204 231
c121 0 204 -95 204 -231zM367 222c0 97 -48 165 -128 165s-128 -68 -128 -165s48 -165 128 -165s128 68 128 165z" />
    <glyph glyph-name="ograve" unicode="&#xf2;" horiz-adv-x="478" 
d="M443 222c0 -136 -83 -231 -204 -231c-122 0 -204 95 -204 231s82 231 204 231c121 0 204 -95 204 -231zM367 222c0 97 -48 165 -128 165s-128 -68 -128 -165s48 -165 128 -165s128 68 128 165zM277 516h-69l-89 134h78z" />
    <glyph glyph-name="otilde" unicode="&#xf5;" horiz-adv-x="478" 
d="M443 222c0 -136 -83 -231 -204 -231c-122 0 -204 95 -204 231s82 231 204 231c121 0 204 -95 204 -231zM367 222c0 97 -48 165 -128 165s-128 -68 -128 -165s48 -165 128 -165s128 68 128 165zM322 633h48c0 -71 -26 -118 -76 -118c-46 0 -72 58 -104 58
c-23 0 -34 -21 -34 -55h-48c0 71 26 118 76 118c47 0 72 -58 104 -58c22 0 33 21 34 55z" />
    <glyph glyph-name="scaron" unicode="&#x161;" horiz-adv-x="414" 
d="M334 646l-92 -136h-70l-92 136h65l62 -87l62 87h65zM30 122h78c14 -46 53 -68 105 -68c53 0 91 21 91 66c0 31 -20 50 -66 62l-88 23c-63 16 -107 48 -107 117c0 79 69 131 159 131c98 0 156 -48 172 -126h-75c-13 40 -44 63 -98 63c-44 0 -85 -21 -85 -64
c0 -30 20 -44 62 -56l86 -21c76 -20 113 -62 113 -124c0 -84 -70 -134 -165 -134c-97 0 -168 49 -182 131z" />
    <glyph glyph-name="uacute" unicode="&#xfa;" horiz-adv-x="487" 
d="M272 516h-69l80 134h78zM421 444v-444h-76v56c-25 -35 -72 -65 -129 -65c-101 0 -155 65 -155 162v291h76v-279c0 -62 30 -105 97 -105c52 0 95 35 111 83v301h76z" />
    <glyph glyph-name="ucircumflex" unicode="&#xfb;" horiz-adv-x="487" 
d="M278 645l92 -136h-65l-62 88l-62 -88h-65l92 136h70zM421 444v-444h-76v56c-25 -35 -72 -65 -129 -65c-101 0 -155 65 -155 162v291h76v-279c0 -62 30 -105 97 -105c52 0 95 35 111 83v301h76z" />
    <glyph glyph-name="udieresis" unicode="&#xfc;" horiz-adv-x="487" 
d="M127 571c0 27 21 47 47 47c25 0 46 -20 46 -47c0 -25 -21 -46 -46 -46c-26 0 -47 21 -47 46zM268 571c0 27 20 47 45 47c26 0 47 -20 47 -47c0 -25 -21 -46 -47 -46c-25 0 -45 21 -45 46zM421 444v-444h-76v56c-25 -35 -72 -65 -129 -65c-101 0 -155 65 -155 162v291h76
v-279c0 -62 30 -105 97 -105c52 0 95 35 111 83v301h76z" />
    <glyph glyph-name="ugrave" unicode="&#xf9;" horiz-adv-x="487" 
d="M421 444v-444h-76v56c-25 -35 -72 -65 -129 -65c-101 0 -155 65 -155 162v291h76v-279c0 -62 30 -105 97 -105c52 0 95 35 111 83v301h76zM281 516h-69l-89 134h78z" />
    <glyph glyph-name="yacute" unicode="&#xfd;" horiz-adv-x="455" 
d="M198 -170h-74l67 167l-173 447h81l131 -350l129 350h78zM257 516h-69l80 134h78z" />
    <glyph glyph-name="ydieresis" unicode="&#xff;" horiz-adv-x="455" 
d="M198 -170h-74l67 167l-173 447h81l131 -350l129 350h78zM111 571c0 27 21 47 47 47c25 0 46 -20 46 -47c0 -25 -21 -46 -46 -46c-26 0 -47 21 -47 46zM252 571c0 27 20 47 45 47c26 0 47 -20 47 -47c0 -25 -21 -46 -47 -46c-25 0 -45 21 -45 46z" />
    <glyph glyph-name="zcaron" unicode="&#x17e;" horiz-adv-x="434" 
d="M351 646l-92 -136h-70l-92 136h65l62 -87l62 87h65zM390 64v-64h-349v49l249 331h-241v64h337v-49l-247 -331h251z" />
    <glyph glyph-name="Euro" unicode="&#x20ac;" horiz-adv-x="543" 
d="M29 339v60h60c27 139 117 224 231 224c102 0 174 -62 197 -168h-72c-18 61 -61 99 -125 99c-78 0 -133 -61 -154 -155h205l-12 -60h-201c-1 -11 -1 -21 -1 -32c0 -13 0 -25 1 -37h191l-12 -60h-170c22 -92 76 -150 153 -150c64 0 107 38 125 99h72
c-23 -106 -95 -168 -197 -168c-113 0 -201 83 -230 219h-61v60h53c-1 12 -1 24 -1 37c0 11 0 21 1 32h-53z" />
    <glyph glyph-name="approxequal" unicode="&#x2248;" horiz-adv-x="551" 
d="M79 308v62c37 29 73 40 106 40c67 0 113 -41 179 -41c33 0 69 13 109 43v-61c-40 -30 -76 -42 -109 -42c-67 0 -113 42 -179 42c-33 0 -69 -13 -106 -43zM79 184v61c37 30 73 41 106 41c67 0 113 -42 179 -42c33 0 69 12 109 43v-61c-40 -30 -76 -41 -109 -41
c-67 0 -113 41 -179 41c-33 0 -69 -13 -106 -42z" />
    <glyph glyph-name="notequal" unicode="&#x2260;" horiz-adv-x="551" 
d="M79 338v57h238l68 93h59l-68 -93h97v-57h-139l-60 -82h199v-57h-240l-67 -92h-59l67 92h-95v57h136l60 82h-196z" />
    <glyph glyph-name="lessequal" unicode="&#x2264;" horiz-adv-x="427" 
d="M63 308v74l297 121v-68l-230 -90l230 -91v-67zM63 91v62h297v-62h-297z" />
    <glyph glyph-name="greaterequal" unicode="&#x2265;" horiz-adv-x="427" 
d="M364 382v-74l-297 -121v67l229 91l-229 90v68zM364 153v-62h-297v62h297z" />
    <glyph glyph-name="uni00A0" unicode="&#xa0;" horiz-adv-x="221" 
 />
    <glyph glyph-name="threesuperior" unicode="&#xb3;" horiz-adv-x="281" 
d="M114 427v48h24c29 0 51 16 51 46c0 26 -19 45 -49 45c-28 0 -49 -21 -52 -49h-63c8 58 49 102 113 102c69 0 110 -39 110 -96c0 -33 -19 -62 -45 -72c31 -11 50 -39 50 -73c0 -58 -42 -101 -113 -101s-114 41 -120 105h65c4 -31 24 -51 56 -51s53 18 53 49
c0 30 -23 47 -54 47h-26z" />
    <glyph glyph-name="Tcedilla" unicode="&#x162;" horiz-adv-x="567" 
d="M238 -201l39 64c-23 3 -40 20 -40 44c0 28 22 48 50 48c27 0 49 -20 49 -50c0 -22 -11 -40 -22 -57l-29 -49h-47zM30 544v70h507v-70h-214v-544h-79v544h-214z" />
    <glyph glyph-name="tcedilla" unicode="&#x163;" horiz-adv-x="317" 
d="M88 112v268h-72v64h72v117h75v-117h107v-64h-107v-260c0 -43 21 -62 59 -62c21 0 43 8 58 18v-70c-17 -9 -43 -15 -70 -15c-72 0 -122 39 -122 121zM139 -201l39 64c-23 3 -40 20 -40 44c0 28 22 48 50 48c27 0 49 -20 49 -50c0 -22 -11 -40 -22 -57l-29 -49h-47z" />
    <glyph glyph-name="i.dot" horiz-adv-x="209" 
d="M142 444v-444h-75v444h75zM152 578c0 -26 -22 -48 -48 -48s-48 22 -48 48c0 27 22 48 48 48s48 -21 48 -48z" />
    <glyph glyph-name="uni0237" unicode="&#x237;" horiz-adv-x="207" 
d="M142 444v-495c0 -83 -46 -128 -129 -128c-9 0 -24 1 -32 4v64c6 -1 17 -3 26 -3c39 0 60 18 60 68v490h75z" />
    <glyph glyph-name="space_uni0326" 
d="M204 -201l39 64c-23 3 -40 20 -40 44c0 28 22 48 50 48c27 0 49 -20 49 -50c0 -22 -11 -40 -22 -57l-29 -49h-47z" />
    <glyph glyph-name="space_uni0326.alt" 
d="M297 680l-40 -65c24 -3 41 -20 41 -46c0 -28 -22 -48 -51 -48c-28 0 -50 20 -50 51c0 22 10 41 22 59l29 49h49z" />
    <glyph glyph-name="space_dotbelowcomb" 
d="M298 -108c0 -27 -22 -48 -48 -48s-48 21 -48 48s22 48 48 48s48 -21 48 -48z" />
    <glyph glyph-name="uni2117" unicode="&#x2117;" horiz-adv-x="706" 
d="M669 307c0 -184 -142 -316 -316 -316s-316 132 -316 316s142 316 316 316s316 -132 316 -316zM630 307c0 161 -125 277 -277 277s-277 -116 -277 -277s125 -277 277 -277s277 116 277 277zM389 254h-83v-130h-69v369h152c77 0 128 -42 128 -119c0 -78 -51 -120 -128 -120
zM449 374c0 35 -22 58 -64 58h-79v-116h79c42 0 64 22 64 58z" />
    <glyph glyph-name=".null" horiz-adv-x="0" 
 />
    <glyph glyph-name="Abreve" unicode="&#x102;" horiz-adv-x="596" 
d="M261 614h74l240 -614h-80l-71 185h-253l-70 -185h-80zM297 516l-100 -262h200zM298 666c-68 0 -115 42 -115 120h57c0 -43 24 -64 58 -64c35 0 59 21 59 64h57c0 -78 -46 -120 -116 -120z" />
    <glyph glyph-name="Amacron" unicode="&#x100;" horiz-adv-x="596" 
d="M261 614h74l240 -614h-80l-71 185h-253l-70 -185h-80zM297 516l-100 -262h200zM192 671v61h213v-61h-213z" />
    <glyph glyph-name="Aogonek" unicode="&#x104;" horiz-adv-x="596" 
d="M261 614h74l240 -614c-40 -66 -50 -82 -50 -106c0 -17 9 -26 23 -26c13 0 22 5 37 15v-50c-15 -11 -31 -19 -52 -19c-43 0 -67 26 -67 66c0 37 21 69 53 120h-24l-71 185h-253l-70 -185h-80zM297 516l-100 -262h201z" />
    <glyph glyph-name="Aringacute" unicode="&#x1fa;" horiz-adv-x="596" 
d="M261 614h74l240 -614h-80l-71 185h-253l-70 -185h-80zM297 516l-100 -262h200zM386 711c0 -42 -39 -74 -89 -74c-49 0 -88 32 -88 74c0 41 39 74 88 74c50 0 89 -33 89 -74zM339 808h-74l55 86h86zM344 711c0 22 -21 36 -47 36c-25 0 -46 -14 -46 -36s21 -36 46 -36
c26 0 47 14 47 36z" />
    <glyph glyph-name="AEacute" unicode="&#x1fc;" horiz-adv-x="862" 
d="M390 614h421v-70h-297v-194h268v-70h-268v-209h297v-71h-374v185h-222l-112 -185h-82zM437 550l-180 -296h180v296zM620 668h-76l80 117h87z" />
    <glyph glyph-name="Cacute" unicode="&#x106;" horiz-adv-x="586" 
d="M37 307c0 191 120 316 275 316c129 0 214 -75 239 -189h-78c-25 71 -76 118 -161 118c-117 0 -196 -99 -196 -245c0 -145 78 -245 196 -245c85 0 136 47 161 119h78c-25 -115 -111 -190 -239 -190c-155 0 -275 125 -275 316zM349 668h-76l80 117h87z" />
    <glyph glyph-name="Ccaron" unicode="&#x10c;" horiz-adv-x="586" 
d="M280 666l-92 121h68l59 -71l59 71h68l-92 -121h-70zM37 307c0 191 120 316 275 316c129 0 214 -75 239 -189h-78c-25 71 -76 118 -161 118c-117 0 -196 -99 -196 -245c0 -145 78 -245 196 -245c85 0 136 47 161 119h78c-25 -115 -111 -190 -239 -190
c-155 0 -275 125 -275 316z" />
    <glyph glyph-name="Ccircumflex" unicode="&#x108;" horiz-adv-x="586" 
d="M37 307c0 191 120 316 275 316c129 0 214 -75 239 -189h-78c-25 71 -76 118 -161 118c-117 0 -196 -99 -196 -245c0 -145 78 -245 196 -245c85 0 136 47 161 119h78c-25 -115 -111 -190 -239 -190c-155 0 -275 125 -275 316zM353 791l92 -122h-68l-59 71l-59 -71h-68
l92 122h70z" />
    <glyph glyph-name="Cdotaccent" unicode="&#x10a;" horiz-adv-x="586" 
d="M363 721c0 -26 -22 -48 -48 -48s-48 22 -48 48c0 27 22 49 48 49s48 -22 48 -49zM37 307c0 191 120 316 275 316c129 0 214 -75 239 -189h-78c-25 71 -76 118 -161 118c-117 0 -196 -99 -196 -245c0 -145 78 -245 196 -245c85 0 136 47 161 119h78
c-25 -115 -111 -190 -239 -190c-155 0 -275 125 -275 316z" />
    <glyph glyph-name="Dcaron" unicode="&#x10e;" horiz-adv-x="605" 
d="M245 666l-92 121h68l59 -71l59 71h68l-92 -121h-70zM152 71h117c139 0 221 92 221 236s-82 237 -221 237h-117v-473zM73 0v614h197c180 0 298 -120 298 -307s-118 -307 -298 -307h-197z" />
    <glyph glyph-name="Dcroat" unicode="&#x110;" horiz-adv-x="620" 
d="M32 284v67h56v263h197c180 0 298 -120 298 -307s-118 -307 -298 -307h-197v284h-56zM167 71h117c139 0 221 92 221 236s-82 237 -221 237h-117v-193h123v-67h-123v-213z" />
    <glyph glyph-name="Ebreve" unicode="&#x114;" horiz-adv-x="515" 
d="M273 666c-68 0 -115 42 -115 120h57c0 -43 24 -64 58 -64c35 0 59 21 59 64h57c0 -78 -46 -120 -116 -120zM73 614h391v-70h-313v-194h284v-70h-284v-209h313v-71h-391v614z" />
    <glyph glyph-name="Ecaron" unicode="&#x11a;" horiz-adv-x="515" 
d="M242 666l-92 121h68l59 -71l59 71h68l-92 -121h-70zM73 614h391v-70h-313v-194h284v-70h-284v-209h313v-71h-391v614z" />
    <glyph glyph-name="Edotaccent" unicode="&#x116;" horiz-adv-x="515" 
d="M321 721c0 -26 -22 -48 -48 -48s-48 22 -48 48c0 27 22 49 48 49s48 -22 48 -49zM73 614h391v-70h-313v-194h284v-70h-284v-209h313v-71h-391v614z" />
    <glyph glyph-name="Emacron" unicode="&#x112;" horiz-adv-x="515" 
d="M167 671v61h213v-61h-213zM73 614h391v-70h-313v-194h284v-70h-284v-209h313v-71h-391v614z" />
    <glyph glyph-name="Eogonek" unicode="&#x118;" horiz-adv-x="515" 
d="M73 614h391v-70h-313v-194h284v-70h-284v-209h313v-71h-33c-38 -62 -49 -82 -49 -106c0 -17 9 -26 22 -26s23 5 37 15v-50c-14 -11 -31 -19 -52 -19c-43 0 -66 26 -66 66c0 37 21 70 52 120h-302v614z" />
    <glyph glyph-name="Gbreve" unicode="&#x11e;" horiz-adv-x="610" 
d="M319 666c-68 0 -115 42 -115 120h57c0 -43 24 -64 58 -64c35 0 59 21 59 64h57c0 -78 -46 -120 -116 -120zM498 235h-147v68h222v-42c0 -164 -104 -270 -254 -270c-160 0 -282 124 -282 316s123 316 280 316c131 0 217 -75 242 -189h-79c-26 72 -76 118 -163 118
c-119 0 -201 -98 -201 -245s81 -246 203 -246c107 0 170 67 179 174z" />
    <glyph glyph-name="Gcircumflex" unicode="&#x11c;" horiz-adv-x="610" 
d="M353 791l92 -122h-68l-59 71l-59 -71h-68l92 122h70zM498 235h-147v68h222v-42c0 -164 -104 -270 -254 -270c-160 0 -282 124 -282 316s123 316 280 316c131 0 217 -75 242 -189h-79c-26 72 -76 118 -163 118c-119 0 -201 -98 -201 -245s81 -246 203 -246
c107 0 170 67 179 174z" />
    <glyph glyph-name="Gcommaaccent" unicode="&#x122;" horiz-adv-x="610" 
d="M271 -201l39 64c-23 3 -40 20 -40 44c0 28 22 48 50 48c27 0 49 -20 49 -50c0 -22 -11 -40 -22 -57l-29 -49h-47zM498 235h-147v68h222v-42c0 -164 -104 -270 -254 -270c-160 0 -282 124 -282 316s123 316 280 316c131 0 217 -75 242 -189h-79c-26 72 -76 118 -163 118
c-119 0 -201 -98 -201 -245s81 -246 203 -246c107 0 170 67 179 174z" />
    <glyph glyph-name="Gdotaccent" unicode="&#x120;" horiz-adv-x="610" 
d="M368 721c0 -26 -22 -48 -48 -48s-48 22 -48 48c0 27 22 49 48 49s48 -22 48 -49zM498 235h-147v68h222v-42c0 -164 -104 -270 -254 -270c-160 0 -282 124 -282 316s123 316 280 316c131 0 217 -75 242 -189h-79c-26 72 -76 118 -163 118c-119 0 -201 -98 -201 -245
s81 -246 203 -246c107 0 170 67 179 174z" />
    <glyph glyph-name="Hbar" unicode="&#x126;" horiz-adv-x="679" 
d="M32 430v66h55v118h79v-118h347v118h79v-118h55v-66h-55v-430h-79v244h-347v-244h-79v430h-55zM166 310h347v120h-347v-120z" />
    <glyph glyph-name="Hcircumflex" unicode="&#x124;" horiz-adv-x="651" 
d="M499 614h79v-614h-79v280h-347v-280h-79v614h79v-263h347v263zM360 791l92 -122h-68l-59 71l-59 -71h-68l92 122h70z" />
    <glyph glyph-name="Ibreve" unicode="&#x12c;" horiz-adv-x="225" 
d="M152 614v-614h-79v614h79zM112 666c-68 0 -115 42 -115 120h57c0 -43 24 -64 58 -64c35 0 59 21 59 64h57c0 -78 -46 -120 -116 -120z" />
    <glyph glyph-name="Idotaccent" unicode="&#x130;" horiz-adv-x="225" 
d="M152 614v-614h-79v614h79zM160 721c0 -26 -22 -48 -48 -48s-48 22 -48 48c0 27 22 49 48 49s48 -22 48 -49z" />
    <glyph glyph-name="Imacron" unicode="&#x12a;" horiz-adv-x="225" 
d="M152 614v-614h-79v614h79zM6 671v61h213v-61h-213z" />
    <glyph glyph-name="Iogonek" unicode="&#x12e;" horiz-adv-x="225" 
d="M152 614v-614c-40 -65 -50 -82 -50 -106c0 -17 10 -26 23 -26s23 5 37 15v-50c-14 -11 -31 -19 -52 -19c-43 0 -66 26 -66 66c0 37 21 70 52 120h-23v614h79z" />
    <glyph glyph-name="Itilde" unicode="&#x128;" horiz-adv-x="225" 
d="M152 614v-614h-79v614h79zM199 784h48c0 -71 -26 -119 -76 -119c-49 0 -74 56 -110 56c-23 0 -34 -19 -34 -53h-49c0 71 26 119 76 119s74 -56 111 -56c22 0 33 19 34 53z" />
    <glyph glyph-name="IJ" unicode="&#x132;" horiz-adv-x="668" 
d="M206 174h82c8 -69 50 -111 118 -111c75 0 122 42 122 141v410h79v-410c0 -143 -82 -213 -199 -213c-122 0 -193 75 -202 183zM152 614v-614h-79v614h79z" />
    <glyph glyph-name="Jcircumflex" unicode="&#x134;" horiz-adv-x="479" 
d="M17 174h81c8 -69 50 -111 119 -111c75 0 122 42 122 141v410h79v-410c0 -143 -83 -213 -200 -213c-121 0 -193 75 -201 183zM414 791l92 -122h-68l-59 71l-59 -71h-68l92 122h70z" />
    <glyph glyph-name="Kcommaaccent" unicode="&#x136;" horiz-adv-x="564" 
d="M216 -201l39 64c-23 3 -40 20 -40 44c0 28 22 48 50 48c27 0 49 -20 49 -50c0 -22 -11 -40 -22 -57l-29 -49h-47zM152 614v-307l286 307h100l-263 -280l272 -334h-98l-231 280l-66 -71v-209h-79v614h79z" />
    <glyph glyph-name="Lacute" unicode="&#x139;" horiz-adv-x="504" 
d="M156 668h-76l80 117h87zM73 0v614h79v-543h313v-71h-392z" />
    <glyph glyph-name="Lcaron" unicode="&#x13d;" horiz-adv-x="504" 
d="M321 450h-60l33 164h60zM73 0v614h79v-543h313v-71h-392z" />
    <glyph glyph-name="Lcommaaccent" unicode="&#x13b;" horiz-adv-x="504" 
d="M231 -201l39 64c-23 3 -40 20 -40 44c0 28 22 48 50 48c27 0 49 -20 49 -50c0 -22 -11 -40 -22 -57l-29 -49h-47zM73 0v614h79v-543h313v-71h-392z" />
    <glyph glyph-name="Ldot" unicode="&#x13f;" horiz-adv-x="504" 
d="M73 0v614h79v-543h313v-71h-392zM412 307c0 -26 -22 -48 -48 -48s-48 22 -48 48c0 27 22 48 48 48s48 -21 48 -48z" />
    <glyph glyph-name="Nacute" unicode="&#x143;" horiz-adv-x="623" 
d="M343 668h-76l80 117h87zM550 614v-614h-58l-343 488v-488h-76v614h75l327 -467v467h75z" />
    <glyph glyph-name="Ncaron" unicode="&#x147;" horiz-adv-x="623" 
d="M277 666l-92 121h68l59 -71l59 71h68l-92 -121h-70zM550 614v-614h-58l-343 488v-488h-76v614h75l327 -467v467h75z" />
    <glyph glyph-name="Ncommaaccent" unicode="&#x145;" horiz-adv-x="623" 
d="M266 -201l39 64c-23 3 -40 20 -40 44c0 28 22 48 50 48c27 0 49 -20 49 -50c0 -22 -11 -40 -22 -57l-29 -49h-47zM550 614v-614h-58l-343 488v-488h-76v614h75l327 -467v467h75z" />
    <glyph glyph-name="Eng" unicode="&#x14a;" horiz-adv-x="623" 
d="M266 -159v78c33 -22 63 -33 102 -33c72 0 106 38 107 139l-326 463v-488h-76v614h75l327 -467v467h75v-587c0 -148 -62 -214 -178 -214c-43 0 -80 14 -106 28z" />
    <glyph glyph-name="Obreve" unicode="&#x14e;" horiz-adv-x="629" 
d="M314 666c-68 0 -115 42 -115 120h57c0 -43 24 -64 58 -64c35 0 59 21 59 64h57c0 -78 -46 -120 -116 -120zM592 307c0 -185 -116 -316 -278 -316c-161 0 -277 131 -277 316c0 186 116 316 277 316c162 0 278 -130 278 -316zM513 307c0 144 -80 245 -199 245
c-118 0 -198 -101 -198 -245s80 -245 198 -245c119 0 199 101 199 245z" />
    <glyph glyph-name="Ohungarumlaut" unicode="&#x150;" horiz-adv-x="629" 
d="M592 307c0 -185 -116 -316 -278 -316c-161 0 -277 131 -277 316c0 186 116 316 277 316c162 0 278 -130 278 -316zM513 307c0 144 -80 245 -199 245c-118 0 -198 -101 -198 -245s80 -245 198 -245c119 0 199 101 199 245zM290 668h-65l67 117h66zM413 668h-65l66 117h67z
" />
    <glyph glyph-name="Omacron" unicode="&#x14c;" horiz-adv-x="629" 
d="M208 671v61h213v-61h-213zM592 307c0 -185 -116 -316 -278 -316c-161 0 -277 131 -277 316c0 186 116 316 277 316c162 0 278 -130 278 -316zM513 307c0 144 -80 245 -199 245c-118 0 -198 -101 -198 -245s80 -245 198 -245c119 0 199 101 199 245z" />
    <glyph glyph-name="Oslashacute" unicode="&#x1fe;" horiz-adv-x="639" 
d="M56 18l56 71c-44 55 -70 130 -70 218c0 186 116 316 277 316c66 0 124 -22 170 -60l47 60l46 -33l-54 -67c44 -55 69 -130 69 -216c0 -185 -116 -316 -278 -316c-64 0 -121 20 -166 57l-50 -63zM121 307c0 -62 13 -117 39 -158l284 357c-32 29 -75 46 -125 46
c-118 0 -198 -101 -198 -245zM518 307c0 60 -13 114 -38 155l-282 -357c31 -28 72 -43 121 -43c119 0 199 101 199 245zM351 668h-76l80 117h87z" />
    <glyph glyph-name="Racute" unicode="&#x154;" horiz-adv-x="552" 
d="M261 260h-109v-260h-79v614h228c123 0 201 -62 201 -178c0 -102 -60 -160 -156 -173l181 -263h-90zM152 545v-218h147c81 0 125 41 125 109s-44 109 -125 109h-147zM303 668h-76l80 117h87z" />
    <glyph glyph-name="Rcaron" unicode="&#x158;" horiz-adv-x="552" 
d="M261 260h-109v-260h-79v614h228c123 0 201 -62 201 -178c0 -102 -60 -160 -156 -173l181 -263h-90zM152 545v-218h147c81 0 125 41 125 109s-44 109 -125 109h-147zM236 666l-92 121h68l59 -71l59 71h68l-92 -121h-70z" />
    <glyph glyph-name="Rcommaaccent" unicode="&#x156;" horiz-adv-x="552" 
d="M261 260h-109v-260h-79v614h228c123 0 201 -62 201 -178c0 -102 -60 -160 -156 -173l181 -263h-90zM152 545v-218h147c81 0 125 41 125 109s-44 109 -125 109h-147zM225 -201l39 64c-23 3 -40 20 -40 44c0 28 22 48 50 48c27 0 49 -20 49 -50c0 -22 -11 -40 -22 -57
l-29 -49h-47z" />
    <glyph glyph-name="Sacute" unicode="&#x15a;" horiz-adv-x="509" 
d="M23 160h80c23 -68 81 -102 156 -102c80 0 136 39 136 107c0 48 -27 79 -98 97l-110 29c-85 22 -147 65 -147 158c0 104 86 174 202 174c127 0 202 -65 225 -162h-79c-19 55 -65 95 -146 95c-73 0 -127 -38 -127 -101c0 -52 34 -77 98 -94l105 -27
c98 -25 153 -78 153 -165c0 -111 -90 -178 -212 -178s-213 61 -236 169zM279 668h-76l80 117h87z" />
    <glyph glyph-name="Scedilla" unicode="&#x15e;" horiz-adv-x="509" 
d="M23 160h80c23 -68 81 -102 156 -102c80 0 136 39 136 107c0 48 -27 79 -98 97l-110 29c-85 22 -147 65 -147 158c0 104 86 174 202 174c127 0 202 -65 225 -162h-79c-19 55 -65 95 -146 95c-73 0 -127 -38 -127 -101c0 -52 34 -77 98 -94l105 -27
c98 -25 153 -78 153 -165c0 -111 -90 -178 -212 -178s-213 61 -236 169zM219 -183h-71l66 132h74z" />
    <glyph glyph-name="Scircumflex" unicode="&#x15c;" horiz-adv-x="509" 
d="M23 160h80c23 -68 81 -102 156 -102c80 0 136 39 136 107c0 48 -27 79 -98 97l-110 29c-85 22 -147 65 -147 158c0 104 86 174 202 174c127 0 202 -65 225 -162h-79c-19 55 -65 95 -146 95c-73 0 -127 -38 -127 -101c0 -52 34 -77 98 -94l105 -27
c98 -25 153 -78 153 -165c0 -111 -90 -178 -212 -178s-213 61 -236 169zM286 791l92 -122h-68l-59 71l-59 -71h-68l92 122h70z" />
    <glyph glyph-name="Scommaaccent" unicode="&#x218;" horiz-adv-x="509" 
d="M201 -201l39 64c-23 3 -40 20 -40 44c0 28 22 48 50 48c27 0 49 -20 49 -50c0 -22 -11 -40 -22 -57l-29 -49h-47zM23 160h80c23 -68 81 -102 156 -102c80 0 136 39 136 107c0 48 -27 79 -98 97l-110 29c-85 22 -147 65 -147 158c0 104 86 174 202 174
c127 0 202 -65 225 -162h-79c-19 55 -65 95 -146 95c-73 0 -127 -38 -127 -101c0 -52 34 -77 98 -94l105 -27c98 -25 153 -78 153 -165c0 -111 -90 -178 -212 -178s-213 61 -236 169z" />
    <glyph glyph-name="Tbar" unicode="&#x166;" horiz-adv-x="567" 
d="M30 544v70h507v-70h-214v-193h113v-67h-113v-284h-79v284h-113v67h113v193h-214z" />
    <glyph glyph-name="Tcaron" unicode="&#x164;" horiz-adv-x="567" 
d="M249 666l-92 121h68l59 -71l59 71h68l-92 -121h-70zM30 544v70h507v-70h-214v-544h-79v544h-214z" />
    <glyph glyph-name="Ubreve" unicode="&#x16c;" horiz-adv-x="607" 
d="M303 666c-68 0 -115 42 -115 120h57c0 -43 24 -64 58 -64c35 0 59 21 59 64h57c0 -78 -46 -120 -116 -120zM303 -9c-139 0 -240 84 -240 253v370h78v-361c0 -131 63 -192 162 -192s162 61 162 192v361h79v-371c0 -168 -101 -252 -241 -252z" />
    <glyph glyph-name="Uhungarumlaut" unicode="&#x170;" horiz-adv-x="607" 
d="M303 -9c-139 0 -240 84 -240 253v370h78v-361c0 -131 63 -192 162 -192s162 61 162 192v361h79v-371c0 -168 -101 -252 -241 -252zM279 668h-65l67 117h66zM402 668h-65l66 117h67z" />
    <glyph glyph-name="Umacron" unicode="&#x16a;" horiz-adv-x="607" 
d="M197 671v61h213v-61h-213zM303 -9c-139 0 -240 84 -240 253v370h78v-361c0 -131 63 -192 162 -192s162 61 162 192v361h79v-371c0 -168 -101 -252 -241 -252z" />
    <glyph glyph-name="Uogonek" unicode="&#x172;" horiz-adv-x="607" 
d="M303 -9c-139 0 -240 84 -240 253v370h78v-361c0 -131 63 -192 162 -192s162 61 162 192v361h79v-371c0 -111 -40 -173 -109 -222c-71 -50 -92 -94 -92 -127c0 -16 9 -26 23 -26c13 0 22 5 37 15v-50c-15 -11 -31 -19 -52 -19c-43 0 -67 26 -67 67c0 37 19 77 57 113
c-8 -2 -30 -3 -38 -3z" />
    <glyph glyph-name="Uring" unicode="&#x16e;" horiz-adv-x="607" 
d="M303 -9c-139 0 -240 84 -240 253v370h78v-361c0 -131 63 -192 162 -192s162 61 162 192v361h79v-371c0 -168 -101 -252 -241 -252zM390 734c0 -48 -38 -86 -87 -86s-87 38 -87 86c0 49 38 87 87 87s87 -38 87 -87zM348 734c0 26 -20 46 -45 46s-45 -20 -45 -46
c0 -25 20 -45 45 -45s45 20 45 45z" />
    <glyph glyph-name="Utilde" unicode="&#x168;" horiz-adv-x="607" 
d="M390 784h48c0 -71 -26 -119 -76 -119c-49 0 -74 56 -110 56c-23 0 -34 -19 -34 -53h-49c0 71 26 119 76 119s74 -56 111 -56c22 0 33 19 34 53zM303 -9c-139 0 -240 84 -240 253v370h78v-361c0 -131 63 -192 162 -192s162 61 162 192v361h79v-371
c0 -168 -101 -252 -241 -252z" />
    <glyph glyph-name="Wacute" unicode="&#x1e82;" horiz-adv-x="767" 
d="M420 668h-76l80 117h87zM353 614h63l130 -488l126 488h76l-163 -614h-72l-129 479l-131 -479h-71l-163 614h78l126 -488z" />
    <glyph glyph-name="Wcircumflex" unicode="&#x174;" horiz-adv-x="767" 
d="M353 614h63l130 -488l126 488h76l-163 -614h-72l-129 479l-131 -479h-71l-163 614h78l126 -488zM418 791l92 -122h-68l-59 71l-59 -71h-68l92 122h70z" />
    <glyph glyph-name="Wgrave" unicode="&#x1e80;" horiz-adv-x="767" 
d="M421 668h-75l-92 117h87zM353 614h63l130 -488l126 488h76l-163 -614h-72l-129 479l-131 -479h-71l-163 614h78l126 -488z" />
    <glyph glyph-name="Wdieresis" unicode="&#x1e84;" horiz-adv-x="767" 
d="M267 722c0 26 21 46 47 46c25 0 46 -20 46 -46s-21 -46 -46 -46c-26 0 -47 20 -47 46zM408 722c0 26 20 46 45 46c26 0 47 -20 47 -46s-21 -46 -47 -46c-25 0 -45 20 -45 46zM353 614h63l130 -488l126 488h76l-163 -614h-72l-129 479l-131 -479h-71l-163 614h78l126 -488
z" />
    <glyph glyph-name="Ycircumflex" unicode="&#x176;" horiz-adv-x="557" 
d="M280 324l177 290h84l-224 -361v-253h-78v253l-222 361h86zM314 791l92 -122h-68l-59 71l-59 -71h-68l92 122h70z" />
    <glyph glyph-name="Ygrave" unicode="&#x1ef2;" horiz-adv-x="557" 
d="M280 324l177 290h84l-224 -361v-253h-78v253l-222 361h86zM319 668h-75l-92 117h87z" />
    <glyph glyph-name="Zacute" unicode="&#x179;" horiz-adv-x="534" 
d="M492 71v-71h-451v57l349 487h-344v70h442v-56l-348 -487h352zM319 668h-76l80 117h87z" />
    <glyph glyph-name="Zdotaccent" unicode="&#x17b;" horiz-adv-x="534" 
d="M335 721c0 -26 -22 -48 -48 -48s-48 22 -48 48c0 27 22 49 48 49s48 -22 48 -49zM492 71v-71h-451v57l349 487h-344v70h442v-56l-348 -487h352z" />
    <glyph glyph-name="abreve" unicode="&#x103;" horiz-adv-x="450" 
d="M389 0h-72v33c-17 -18 -64 -41 -117 -41c-90 0 -165 54 -165 142c0 83 75 139 170 139c46 0 93 -19 112 -36v56c0 55 -34 95 -98 95c-47 0 -77 -20 -91 -61h-74c15 75 81 126 166 126c106 0 169 -60 169 -157v-296zM317 110v46c-13 33 -58 55 -104 55
c-54 0 -106 -24 -106 -77c0 -54 52 -79 106 -79c46 0 91 22 104 55zM227 500c-67 0 -114 45 -114 128h57c0 -45 20 -73 57 -73s57 28 57 73h57c0 -83 -47 -128 -114 -128z" />
    <glyph glyph-name="amacron" unicode="&#x101;" horiz-adv-x="450" 
d="M389 0h-72v33c-17 -18 -64 -41 -117 -41c-90 0 -165 54 -165 142c0 83 75 139 170 139c46 0 93 -19 112 -36v56c0 55 -34 95 -98 95c-47 0 -77 -20 -91 -61h-74c15 75 81 126 166 126c106 0 169 -60 169 -157v-296zM317 110v46c-13 33 -58 55 -104 55
c-54 0 -106 -24 -106 -77c0 -54 52 -79 106 -79c46 0 91 22 104 55zM123 530v61h213v-61h-213z" />
    <glyph glyph-name="aogonek" unicode="&#x105;" horiz-adv-x="450" 
d="M316 110v46c-12 33 -57 55 -103 55c-54 0 -106 -24 -106 -77c0 -54 52 -79 106 -79c46 0 91 22 103 55zM333 0h-17v33c-17 -18 -63 -41 -116 -41c-90 0 -165 54 -165 142c0 83 75 139 170 139c46 0 92 -19 111 -36v56c0 55 -33 95 -97 95c-47 0 -79 -20 -92 -61h-73
c15 75 81 126 166 126c106 0 169 -60 169 -157v-296c-39 -65 -49 -82 -49 -106c0 -17 9 -26 22 -26s23 5 37 15v-50c-14 -11 -31 -19 -52 -19c-43 0 -66 26 -66 66c0 37 21 70 52 120z" />
    <glyph glyph-name="aringacute" unicode="&#x1fb;" horiz-adv-x="450" 
d="M316 550c0 -41 -39 -74 -89 -74c-49 0 -88 33 -88 74c0 42 39 74 88 74c50 0 89 -32 89 -74zM274 550c0 22 -21 37 -47 37c-25 0 -46 -15 -46 -37s21 -36 46 -36c26 0 47 14 47 36zM268 647h-74l56 86h86zM389 0h-72v33c-17 -18 -64 -41 -117 -41c-90 0 -165 54 -165 142
c0 83 75 139 170 139c46 0 93 -19 112 -36v56c0 55 -34 95 -98 95c-47 0 -77 -20 -91 -61h-74c15 75 81 126 166 126c106 0 169 -60 169 -157v-296zM317 110v46c-13 33 -58 55 -104 55c-54 0 -106 -24 -106 -77c0 -54 52 -79 106 -79c46 0 91 22 104 55z" />
    <glyph glyph-name="aeacute" unicode="&#x1fd;" horiz-adv-x="731" 
d="M415 516h-69l80 134h78zM199 55c58 0 99 34 116 81v71h-105c-54 0 -105 -23 -105 -75s44 -77 94 -77zM621 133h71c-16 -84 -80 -142 -180 -142c-69 0 -126 31 -161 84c-33 -45 -85 -83 -158 -83c-89 0 -159 53 -159 136c0 86 75 138 171 138h110v27c0 55 -33 95 -97 95
c-47 0 -79 -20 -93 -61h-72c15 75 81 126 166 126c72 0 122 -31 144 -81c33 48 84 81 147 81c122 0 188 -89 188 -218v-27h-315c2 -96 55 -153 129 -153c55 0 97 28 109 78zM511 389c-67 0 -115 -46 -126 -124h237c-2 66 -37 124 -111 124z" />
    <glyph glyph-name="cacute" unicode="&#x107;" horiz-adv-x="446" 
d="M270 516h-69l80 134h78zM35 222c0 138 83 231 202 231c100 0 163 -58 178 -143h-77c-10 48 -48 77 -101 77c-76 0 -126 -68 -126 -165s50 -165 126 -165c53 0 91 29 101 77h77c-15 -85 -78 -143 -178 -143c-119 0 -202 93 -202 231z" />
    <glyph glyph-name="ccaron" unicode="&#x10d;" horiz-adv-x="446" 
d="M368 646l-92 -136h-70l-92 136h65l62 -87l62 87h65zM35 222c0 138 83 231 202 231c100 0 163 -58 178 -143h-77c-10 48 -48 77 -101 77c-76 0 -126 -68 -126 -165s50 -165 126 -165c53 0 91 29 101 77h77c-15 -85 -78 -143 -178 -143c-119 0 -202 93 -202 231z" />
    <glyph glyph-name="ccircumflex" unicode="&#x109;" horiz-adv-x="446" 
d="M276 645l92 -136h-65l-62 88l-62 -88h-65l92 136h70zM35 222c0 138 83 231 202 231c100 0 163 -58 178 -143h-77c-10 48 -48 77 -101 77c-76 0 -126 -68 -126 -165s50 -165 126 -165c53 0 91 29 101 77h77c-15 -85 -78 -143 -178 -143c-119 0 -202 93 -202 231z" />
    <glyph glyph-name="cdotaccent" unicode="&#x10b;" horiz-adv-x="446" 
d="M35 222c0 138 83 231 202 231c100 0 163 -58 178 -143h-77c-10 48 -48 77 -101 77c-76 0 -126 -68 -126 -165s50 -165 126 -165c53 0 91 29 101 77h77c-15 -85 -78 -143 -178 -143c-119 0 -202 93 -202 231zM289 578c0 -26 -22 -48 -48 -48s-48 22 -48 48
c0 27 22 48 48 48s48 -21 48 -48z" />
    <glyph glyph-name="dcaron" unicode="&#x10f;" horiz-adv-x="502" 
d="M549 486h-60l33 164h60zM360 0v52c-22 -32 -70 -61 -125 -61c-130 0 -200 105 -200 231c0 125 70 231 200 231c55 0 103 -29 125 -61v258h76v-650h-76zM360 132v180c-23 46 -67 73 -114 73c-85 0 -135 -69 -135 -163s50 -163 135 -163c47 0 91 27 114 73z" />
    <glyph glyph-name="dcroat" unicode="&#x111;" horiz-adv-x="502" 
d="M252 511v54h108v85h76v-85h56v-54h-56v-511h-76v52c-22 -32 -70 -61 -125 -61c-130 0 -200 105 -200 231c0 125 70 231 200 231c55 0 103 -29 125 -61v119h-108zM360 132v180c-23 46 -67 73 -114 73c-85 0 -135 -69 -135 -163s50 -163 135 -163c47 0 91 27 114 73z" />
    <glyph glyph-name="ebreve" unicode="&#x115;" horiz-adv-x="457" 
d="M347 133h71c-16 -84 -79 -142 -179 -142c-121 0 -204 93 -204 230c0 133 81 232 202 232c122 0 187 -89 187 -218v-27h-314c1 -95 54 -153 129 -153c55 0 96 28 108 78zM238 389c-67 0 -115 -46 -126 -124h236c-1 66 -36 124 -110 124zM241 500c-67 0 -114 45 -114 128
h57c0 -45 20 -73 57 -73s57 28 57 73h57c0 -83 -47 -128 -114 -128z" />
    <glyph glyph-name="ecaron" unicode="&#x11b;" horiz-adv-x="457" 
d="M368 646l-92 -136h-70l-92 136h65l62 -87l62 87h65zM347 133h71c-16 -84 -79 -142 -179 -142c-121 0 -204 93 -204 230c0 133 81 232 202 232c122 0 187 -89 187 -218v-27h-314c1 -95 54 -153 129 -153c55 0 96 28 108 78zM238 389c-67 0 -115 -46 -126 -124h236
c-1 66 -36 124 -110 124z" />
    <glyph glyph-name="edotaccent" unicode="&#x117;" horiz-adv-x="457" 
d="M347 133h71c-16 -84 -79 -142 -179 -142c-121 0 -204 93 -204 230c0 133 81 232 202 232c122 0 187 -89 187 -218v-27h-314c1 -95 54 -153 129 -153c55 0 96 28 108 78zM238 389c-67 0 -115 -46 -126 -124h236c-1 66 -36 124 -110 124zM289 578c0 -26 -22 -48 -48 -48
s-48 22 -48 48c0 27 22 48 48 48s48 -21 48 -48z" />
    <glyph glyph-name="emacron" unicode="&#x113;" horiz-adv-x="457" 
d="M135 530v61h213v-61h-213zM347 133h71c-16 -84 -79 -142 -179 -142c-121 0 -204 93 -204 230c0 133 81 232 202 232c122 0 187 -89 187 -218v-27h-314c1 -95 54 -153 129 -153c55 0 96 28 108 78zM238 389c-67 0 -115 -46 -126 -124h236c-1 66 -36 124 -110 124z" />
    <glyph glyph-name="eogonek" unicode="&#x119;" horiz-adv-x="457" 
d="M238 389c-67 0 -115 -46 -126 -124h236c-1 66 -36 124 -110 124zM280 -3c-13 -4 -27 -6 -41 -6c-121 0 -204 93 -204 230c0 133 81 232 202 232c122 0 187 -89 187 -218v-27h-314c1 -95 54 -153 129 -153c54 0 96 28 108 78h71c-7 -41 -27 -74 -60 -108
c-47 -48 -75 -91 -75 -128c0 -19 9 -29 24 -29c13 0 23 5 37 15v-50c-14 -11 -31 -19 -52 -19c-43 0 -68 28 -68 68s21 74 56 115z" />
    <glyph glyph-name="gbreve" unicode="&#x11f;" horiz-adv-x="501" 
d="M358 30v33c-22 -31 -69 -60 -124 -60c-130 0 -199 108 -199 225c0 118 69 225 199 225c55 0 102 -28 124 -59v50h76v-409c0 -146 -84 -215 -198 -215c-108 0 -176 56 -190 147h74c13 -56 55 -83 116 -83c80 0 122 50 122 146zM358 140v177c-23 42 -65 69 -113 69
c-84 0 -133 -66 -133 -158c0 -91 49 -157 133 -157c48 0 90 27 113 69zM259 500c-67 0 -114 45 -114 128h57c0 -45 20 -73 57 -73s57 28 57 73h57c0 -83 -47 -128 -114 -128z" />
    <glyph glyph-name="gcircumflex" unicode="&#x11d;" horiz-adv-x="501" 
d="M294 645l92 -136h-65l-62 88l-62 -88h-65l92 136h70zM358 30v33c-22 -31 -69 -60 -124 -60c-130 0 -199 108 -199 225c0 118 69 225 199 225c55 0 102 -28 124 -59v50h76v-409c0 -146 -84 -215 -198 -215c-108 0 -176 56 -190 147h74c13 -56 55 -83 116 -83
c80 0 122 50 122 146zM358 140v177c-23 42 -65 69 -113 69c-84 0 -133 -66 -133 -158c0 -91 49 -157 133 -157c48 0 90 27 113 69z" />
    <glyph glyph-name="gcommaaccent" unicode="&#x123;" horiz-adv-x="501" 
d="M307 680l-40 -65c24 -3 41 -20 41 -46c0 -28 -22 -48 -51 -48c-28 0 -50 20 -50 51c0 22 10 41 22 59l29 49h49zM358 30v33c-22 -31 -69 -60 -124 -60c-130 0 -199 108 -199 225c0 118 69 225 199 225c55 0 102 -28 124 -59v50h76v-409c0 -146 -84 -215 -198 -215
c-108 0 -176 56 -190 147h74c13 -56 55 -83 116 -83c80 0 122 50 122 146zM358 140v177c-23 42 -65 69 -113 69c-84 0 -133 -66 -133 -158c0 -91 49 -157 133 -157c48 0 90 27 113 69z" />
    <glyph glyph-name="gdotaccent" unicode="&#x121;" horiz-adv-x="501" 
d="M307 578c0 -26 -22 -48 -48 -48s-48 22 -48 48c0 27 22 48 48 48s48 -21 48 -48zM358 30v33c-22 -31 -69 -60 -124 -60c-130 0 -199 108 -199 225c0 118 69 225 199 225c55 0 102 -28 124 -59v50h76v-409c0 -146 -84 -215 -198 -215c-108 0 -176 56 -190 147h74
c13 -56 55 -83 116 -83c80 0 122 50 122 146zM358 140v177c-23 42 -65 69 -113 69c-84 0 -133 -66 -133 -158c0 -91 49 -157 133 -157c48 0 90 27 113 69z" />
    <glyph glyph-name="hbar" unicode="&#x127;" horiz-adv-x="489" 
d="M10 511v54h57v85h75v-85h108v-54h-108v-123c26 35 74 65 131 65c101 0 156 -65 156 -162v-291h-76v279c0 62 -31 105 -98 105c-52 0 -97 -35 -113 -83v-301h-75v511h-57z" />
    <glyph glyph-name="hcircumflex" unicode="&#x125;" horiz-adv-x="489" 
d="M67 0v650h75v-262c26 35 74 65 131 65c101 0 156 -65 156 -162v-291h-76v279c0 62 -31 105 -98 105c-52 0 -97 -35 -113 -83v-301h-75zM282 804l92 -122h-68l-59 71l-59 -71h-68l92 122h70z" />
    <glyph glyph-name="ibreve" unicode="&#x12d;" horiz-adv-x="209" 
d="M105 500c-60 0 -102 45 -102 128h55c0 -45 14 -73 47 -73c32 0 46 28 46 73h55c0 -83 -41 -128 -101 -128zM142 444v-444h-75v444h75z" />
    <glyph glyph-name="imacron" unicode="&#x12b;" horiz-adv-x="209" 
d="M142 444v-444h-75v444h75zM16 530v61h177v-61h-177z" />
    <glyph glyph-name="iogonek" unicode="&#x12f;" horiz-adv-x="209" 
d="M142 444v-444c-39 -65 -49 -82 -49 -106c0 -17 9 -26 23 -26c13 0 22 5 37 15v-50c-15 -11 -32 -19 -52 -19c-44 0 -67 26 -67 66c0 37 21 70 52 120h-19v444h75zM153 578c0 -26 -22 -48 -49 -48c-26 0 -48 22 -48 48c0 27 22 48 48 48c27 0 49 -21 49 -48z" />
    <glyph glyph-name="itilde" unicode="&#x129;" horiz-adv-x="209" 
d="M168 633h46c0 -71 -23 -118 -64 -118c-39 0 -60 56 -84 56c-18 0 -26 -19 -27 -53h-46c0 71 23 118 64 118c39 0 61 -56 85 -56c17 0 25 19 26 53zM142 444v-444h-75v444h75z" />
    <glyph glyph-name="ij" unicode="&#x133;" horiz-adv-x="416" 
d="M142 444v-444h-75v444h75zM153 578c0 -26 -22 -48 -49 -48c-26 0 -48 22 -48 48c0 27 22 48 48 48c27 0 49 -21 49 -48zM351 444v-495c0 -83 -46 -128 -129 -128c-9 0 -24 1 -32 4v64c6 -1 17 -3 26 -3c39 0 60 18 60 68v490h75zM362 578c0 -26 -22 -48 -49 -48
c-26 0 -48 22 -48 48c0 27 22 48 48 48c27 0 49 -21 49 -48z" />
    <glyph glyph-name="jcircumflex" unicode="&#x135;" horiz-adv-x="207" 
d="M139 645l74 -136h-64l-45 85l-45 -85h-63l74 136h69zM142 444v-495c0 -83 -46 -128 -129 -128c-9 0 -24 1 -32 4v64c6 -1 17 -3 26 -3c39 0 60 18 60 68v490h75z" />
    <glyph glyph-name="kcommaaccent" unicode="&#x137;" horiz-adv-x="464" 
d="M179 -201l39 64c-23 3 -40 20 -40 44c0 28 22 48 50 48c27 0 49 -20 49 -50c0 -22 -11 -40 -22 -57l-29 -49h-47zM359 0l-169 205l-48 -46v-159h-75v650h75v-403l203 197h99l-200 -192l207 -252h-92z" />
    <glyph glyph-name="kgreenlandic" unicode="&#x138;" horiz-adv-x="464" 
d="M359 0l-169 205l-48 -46v-159h-75v444h75v-197l203 197h99l-200 -192l207 -252h-92z" />
    <glyph glyph-name="lacute" unicode="&#x13a;" horiz-adv-x="209" 
d="M142 695h-76l80 117h87zM142 650v-650h-75v650h75z" />
    <glyph glyph-name="lcaron" unicode="&#x13e;" horiz-adv-x="209" 
d="M256 486h-60l33 164h60zM142 650v-650h-75v650h75z" />
    <glyph glyph-name="lcommaaccent" unicode="&#x13c;" horiz-adv-x="209" 
d="M56 -201l39 64c-23 3 -40 20 -40 44c0 28 22 48 50 48c27 0 49 -20 49 -50c0 -22 -11 -40 -22 -57l-29 -49h-47zM142 650v-650h-75v650h75z" />
    <glyph glyph-name="ldot" unicode="&#x140;" horiz-adv-x="332" 
d="M142 650v-650h-75v650h75zM317 325c0 -26 -22 -48 -48 -48s-48 22 -48 48c0 27 22 48 48 48s48 -21 48 -48z" />
    <glyph glyph-name="nacute" unicode="&#x144;" horiz-adv-x="489" 
d="M280 516h-69l80 134h78zM67 0v444h75v-56c26 35 74 65 131 65c101 0 156 -65 156 -162v-291h-76v279c0 62 -31 105 -98 105c-52 0 -97 -35 -113 -83v-301h-75z" />
    <glyph glyph-name="ncaron" unicode="&#x148;" horiz-adv-x="489" 
d="M378 646l-92 -136h-70l-92 136h65l62 -87l62 87h65zM67 0v444h75v-56c26 35 74 65 131 65c101 0 156 -65 156 -162v-291h-76v279c0 62 -31 105 -98 105c-52 0 -97 -35 -113 -83v-301h-75z" />
    <glyph glyph-name="ncommaaccent" unicode="&#x146;" horiz-adv-x="489" 
d="M205 -201l39 64c-23 3 -40 20 -40 44c0 28 22 48 50 48c27 0 49 -20 49 -50c0 -22 -11 -40 -22 -57l-29 -49h-47zM67 0v444h75v-56c26 35 74 65 131 65c101 0 156 -65 156 -162v-291h-76v279c0 62 -31 105 -98 105c-52 0 -97 -35 -113 -83v-301h-75z" />
    <glyph glyph-name="eng" unicode="&#x14b;" horiz-adv-x="489" 
d="M353 -46v325c0 62 -31 105 -98 105c-52 0 -97 -35 -113 -83v-301h-75v444h75v-56c26 35 74 65 131 65c101 0 156 -65 156 -162v-342c0 -83 -46 -128 -129 -128c-9 0 -25 1 -32 4v64c6 -1 16 -3 25 -3c39 0 60 18 60 68z" />
    <glyph glyph-name="obreve" unicode="&#x14f;" horiz-adv-x="478" 
d="M443 222c0 -136 -83 -231 -204 -231c-122 0 -204 95 -204 231s82 231 204 231c121 0 204 -95 204 -231zM367 222c0 97 -48 165 -128 165s-128 -68 -128 -165s48 -165 128 -165s128 68 128 165zM239 500c-67 0 -114 45 -114 128h57c0 -45 20 -73 57 -73s57 28 57 73h57
c0 -83 -47 -128 -114 -128z" />
    <glyph glyph-name="ohungarumlaut" unicode="&#x151;" horiz-adv-x="478" 
d="M207 516h-63l66 134h65zM326 516h-63l67 134h64zM443 222c0 -136 -83 -231 -204 -231c-122 0 -204 95 -204 231s82 231 204 231c121 0 204 -95 204 -231zM367 222c0 97 -48 165 -128 165s-128 -68 -128 -165s48 -165 128 -165s128 68 128 165z" />
    <glyph glyph-name="omacron" unicode="&#x14d;" horiz-adv-x="478" 
d="M133 530v61h213v-61h-213zM443 222c0 -136 -83 -231 -204 -231c-122 0 -204 95 -204 231s82 231 204 231c121 0 204 -95 204 -231zM367 222c0 97 -48 165 -128 165s-128 -68 -128 -165s48 -165 128 -165s128 68 128 165z" />
    <glyph glyph-name="oslashacute" unicode="&#x1ff;" horiz-adv-x="488" 
d="M40 1l49 63c-32 40 -49 94 -49 158c0 136 82 231 204 231c45 0 85 -13 117 -37l42 53l41 -29l-46 -60c31 -40 50 -95 50 -158c0 -136 -83 -231 -204 -231c-47 0 -87 13 -119 38l-44 -57zM373 222c0 38 -8 72 -22 99l-184 -238c20 -17 46 -26 77 -26c80 0 129 68 129 165z
M115 222c0 -38 7 -72 20 -98l184 237c-20 17 -45 26 -75 26c-80 0 -129 -68 -129 -165zM272 516h-69l80 134h78z" />
    <glyph glyph-name="racute" unicode="&#x155;" horiz-adv-x="321" 
d="M210 516h-69l80 134h78zM295 446v-77c-12 8 -31 12 -50 12c-47 0 -88 -31 -103 -83v-298h-75v444h75v-58c19 38 61 67 110 67c19 0 35 -3 43 -7z" />
    <glyph glyph-name="rcaron" unicode="&#x159;" horiz-adv-x="321" 
d="M308 646l-92 -136h-70l-92 136h65l62 -87l62 87h65zM295 446v-77c-12 8 -31 12 -50 12c-47 0 -88 -31 -103 -83v-298h-75v444h75v-58c19 38 61 67 110 67c19 0 35 -3 43 -7z" />
    <glyph glyph-name="rcommaaccent" unicode="&#x157;" horiz-adv-x="321" 
d="M54 -201l39 64c-23 3 -40 20 -40 44c0 28 22 48 50 48c27 0 49 -20 49 -50c0 -22 -11 -40 -22 -57l-29 -49h-47zM295 446v-77c-12 8 -31 12 -50 12c-47 0 -88 -31 -103 -83v-298h-75v444h75v-58c19 38 61 67 110 67c19 0 35 -3 43 -7z" />
    <glyph glyph-name="sacute" unicode="&#x15b;" horiz-adv-x="414" 
d="M236 516h-69l80 134h78zM30 122h78c14 -46 53 -68 105 -68c53 0 91 21 91 66c0 31 -20 50 -66 62l-88 23c-63 16 -107 48 -107 117c0 79 69 131 159 131c98 0 156 -48 172 -126h-75c-13 40 -44 63 -98 63c-44 0 -85 -21 -85 -64c0 -30 20 -44 62 -56l86 -21
c76 -20 113 -62 113 -124c0 -84 -70 -134 -165 -134c-97 0 -168 49 -182 131z" />
    <glyph glyph-name="scedilla" unicode="&#x15f;" horiz-adv-x="414" 
d="M30 122h78c14 -46 53 -68 105 -68c53 0 91 21 91 66c0 31 -20 50 -66 62l-88 23c-63 16 -107 48 -107 117c0 79 69 131 159 131c98 0 156 -48 172 -126h-75c-13 40 -44 63 -98 63c-44 0 -85 -21 -85 -64c0 -30 20 -44 62 -56l86 -21c76 -20 113 -62 113 -124
c0 -84 -70 -134 -165 -134c-97 0 -168 49 -182 131zM179 -183h-71l66 132h74z" />
    <glyph glyph-name="scircumflex" unicode="&#x15d;" horiz-adv-x="414" 
d="M242 645l92 -136h-65l-62 88l-62 -88h-65l92 136h70zM30 122h78c14 -46 53 -68 105 -68c53 0 91 21 91 66c0 31 -20 50 -66 62l-88 23c-63 16 -107 48 -107 117c0 79 69 131 159 131c98 0 156 -48 172 -126h-75c-13 40 -44 63 -98 63c-44 0 -85 -21 -85 -64
c0 -30 20 -44 62 -56l86 -21c76 -20 113 -62 113 -124c0 -84 -70 -134 -165 -134c-97 0 -168 49 -182 131z" />
    <glyph glyph-name="scommaaccent" unicode="&#x219;" horiz-adv-x="414" 
d="M161 -201l39 64c-23 3 -40 20 -40 44c0 28 22 48 50 48c27 0 49 -20 49 -50c0 -22 -11 -40 -22 -57l-29 -49h-47zM30 122h78c14 -46 53 -68 105 -68c53 0 91 21 91 66c0 31 -20 50 -66 62l-88 23c-63 16 -107 48 -107 117c0 79 69 131 159 131c98 0 156 -48 172 -126h-75
c-13 40 -44 63 -98 63c-44 0 -85 -21 -85 -64c0 -30 20 -44 62 -56l86 -21c76 -20 113 -62 113 -124c0 -84 -70 -134 -165 -134c-97 0 -168 49 -182 131z" />
    <glyph glyph-name="tbar" unicode="&#x167;" horiz-adv-x="321" 
d="M29 219v61h63v100h-72v64h72v117h75v-117h107v-64h-107v-100h91v-61h-91v-99c0 -43 21 -62 59 -62c21 0 43 8 58 18v-70c-17 -9 -43 -15 -70 -15c-73 0 -122 39 -122 121v107h-63z" />
    <glyph glyph-name="tcaron" unicode="&#x165;" horiz-adv-x="317" 
d="M88 112v268h-72v64h72v117h75v-117h107v-64h-107v-260c0 -43 21 -62 59 -62c21 0 43 8 58 18v-70c-17 -9 -43 -15 -70 -15c-72 0 -122 39 -122 121zM276 496h-60l33 164h60z" />
    <glyph glyph-name="ubreve" unicode="&#x16d;" horiz-adv-x="487" 
d="M421 444v-444h-76v56c-25 -35 -72 -65 -129 -65c-101 0 -155 65 -155 162v291h76v-279c0 -62 30 -105 97 -105c52 0 95 35 111 83v301h76zM243 500c-67 0 -114 45 -114 128h57c0 -45 20 -73 57 -73s57 28 57 73h57c0 -83 -47 -128 -114 -128z" />
    <glyph glyph-name="uhungarumlaut" unicode="&#x171;" horiz-adv-x="487" 
d="M421 444v-444h-76v56c-25 -35 -72 -65 -129 -65c-101 0 -155 65 -155 162v291h76v-279c0 -62 30 -105 97 -105c52 0 95 35 111 83v301h76zM212 516h-63l66 134h65zM331 516h-63l67 134h64z" />
    <glyph glyph-name="umacron" unicode="&#x16b;" horiz-adv-x="487" 
d="M421 444v-444h-76v56c-25 -35 -72 -65 -129 -65c-101 0 -155 65 -155 162v291h76v-279c0 -62 30 -105 97 -105c52 0 95 35 111 83v301h76zM137 530v61h213v-61h-213z" />
    <glyph glyph-name="uogonek" unicode="&#x173;" horiz-adv-x="487" 
d="M421 444v-444c-39 -65 -49 -82 -49 -106c0 -17 9 -26 22 -26s23 5 37 15v-50c-14 -11 -31 -19 -52 -19c-43 0 -66 26 -66 66c0 37 21 70 52 120h-20v56c-25 -35 -72 -65 -129 -65c-101 0 -155 65 -155 162v291h76v-279c0 -62 30 -105 97 -105c52 0 95 35 111 83v301h76z
" />
    <glyph glyph-name="uring" unicode="&#x16f;" horiz-adv-x="487" 
d="M330 580c0 -49 -38 -86 -87 -86s-87 37 -87 86s38 86 87 86s87 -37 87 -86zM288 580c0 26 -20 45 -45 45s-45 -19 -45 -45s20 -45 45 -45s45 19 45 45zM421 444v-444h-76v56c-25 -35 -72 -65 -129 -65c-101 0 -155 65 -155 162v291h76v-279c0 -62 30 -105 97 -105
c52 0 95 35 111 83v301h76z" />
    <glyph glyph-name="utilde" unicode="&#x169;" horiz-adv-x="487" 
d="M421 444v-444h-76v56c-25 -35 -72 -65 -129 -65c-101 0 -155 65 -155 162v291h76v-279c0 -62 30 -105 97 -105c52 0 95 35 111 83v301h76zM327 633h48c0 -71 -26 -118 -76 -118c-46 0 -72 58 -104 58c-23 0 -34 -21 -34 -55h-48c0 71 26 118 76 118c47 0 72 -58 104 -58
c22 0 33 21 34 55z" />
    <glyph glyph-name="wacute" unicode="&#x1e83;" horiz-adv-x="629" 
d="M344 516h-69l80 134h78zM349 444l91 -339l98 339h73l-131 -444h-73l-92 337l-93 -337h-73l-131 444h75l98 -339l91 339h67z" />
    <glyph glyph-name="wcircumflex" unicode="&#x175;" horiz-adv-x="629" 
d="M350 645l92 -136h-65l-62 88l-62 -88h-65l92 136h70zM349 444l91 -339l98 339h73l-131 -444h-73l-92 337l-93 -337h-73l-131 444h75l98 -339l91 339h67z" />
    <glyph glyph-name="wgrave" unicode="&#x1e81;" horiz-adv-x="629" 
d="M349 444l91 -339l98 339h73l-131 -444h-73l-92 337l-93 -337h-73l-131 444h75l98 -339l91 339h67zM353 516h-69l-89 134h78z" />
    <glyph glyph-name="wdieresis" unicode="&#x1e85;" horiz-adv-x="629" 
d="M198 571c0 27 21 47 47 47c25 0 46 -20 46 -47c0 -25 -21 -46 -46 -46c-26 0 -47 21 -47 46zM339 571c0 27 20 47 45 47c26 0 47 -20 47 -47c0 -25 -21 -46 -47 -46c-25 0 -45 21 -45 46zM349 444l91 -339l98 339h73l-131 -444h-73l-92 337l-93 -337h-73l-131 444h75
l98 -339l91 339h67z" />
    <glyph glyph-name="ycircumflex" unicode="&#x177;" horiz-adv-x="455" 
d="M198 -170h-74l67 167l-173 447h81l131 -350l129 350h78zM263 645l92 -136h-65l-62 88l-62 -88h-65l92 136h70z" />
    <glyph glyph-name="ygrave" unicode="&#x1ef3;" horiz-adv-x="455" 
d="M198 -170h-74l67 167l-173 447h81l131 -350l129 350h78zM266 516h-69l-89 134h78z" />
    <glyph glyph-name="zacute" unicode="&#x17a;" horiz-adv-x="434" 
d="M253 516h-69l80 134h78zM390 64v-64h-349v49l249 331h-241v64h337v-49l-247 -331h251z" />
    <glyph glyph-name="zdotaccent" unicode="&#x17c;" horiz-adv-x="434" 
d="M390 64v-64h-349v49l249 331h-241v64h337v-49l-247 -331h251zM272 578c0 -26 -22 -48 -48 -48s-48 22 -48 48c0 27 22 48 48 48s48 -21 48 -48z" />
    <glyph glyph-name="caron.Slovak" 
d="M258 486h-60l33 164h60z" />
    <glyph glyph-name="cedilla.alt" 
d="M250 -183h-71l66 132h74z" />
    <glyph glyph-name="grave.cap" 
d="M333 668h-75l-92 117h87z" />
    <glyph glyph-name="acute.cap" 
d="M242 668h-76l80 117h87z" />
    <glyph glyph-name="circumflex.cap" 
d="M285 791l92 -122h-68l-59 71l-59 -71h-68l92 122h70z" />
    <glyph glyph-name="caron.cap" 
d="M215 666l-92 121h68l59 -71l59 71h68l-92 -121h-70z" />
    <glyph glyph-name="tilde.cap" 
d="M336 784h48c0 -71 -26 -119 -76 -119c-49 0 -74 56 -110 56c-23 0 -34 -19 -34 -53h-49c0 71 26 119 76 119s74 -56 111 -56c22 0 33 19 34 53z" />
    <glyph glyph-name="macron.cap" 
d="M143 671v61h213v-61h-213z" />
    <glyph glyph-name="breve.cap" 
d="M249 666c-68 0 -115 42 -115 120h57c0 -43 24 -64 58 -64c35 0 59 21 59 64h57c0 -78 -46 -120 -116 -120z" />
    <glyph glyph-name="dotaccent.cap" 
d="M298 721c0 -26 -22 -48 -48 -48s-48 22 -48 48c0 27 22 49 48 49s48 -22 48 -49z" />
    <glyph glyph-name="dieresis.cap" 
d="M133 722c0 26 21 46 47 46c25 0 46 -20 46 -46s-21 -46 -46 -46c-26 0 -47 20 -47 46zM274 722c0 26 20 46 45 46c26 0 47 -20 47 -46s-21 -46 -47 -46c-25 0 -45 20 -45 46z" />
    <glyph glyph-name="ring.cap" 
d="M337 734c0 -48 -38 -86 -87 -86s-87 38 -87 86c0 49 38 87 87 87s87 -38 87 -87zM295 734c0 26 -20 46 -45 46s-45 -20 -45 -46c0 -25 20 -45 45 -45s45 20 45 45z" />
    <glyph glyph-name="hungarumlaut.cap" 
d="M187 668h-65l67 117h66zM310 668h-65l66 117h67z" />
    <glyph glyph-name="exclamdown.cap" horiz-adv-x="203" 
d="M48 565c0 31 24 54 53 54c30 0 54 -23 54 -54s-24 -55 -54 -55c-29 0 -53 24 -53 55zM57 0l17 421h54l18 -421h-89z" />
    <glyph glyph-name="questiondown.cap" horiz-adv-x="432" 
d="M262 564c0 -31 -24 -55 -53 -55c-30 0 -54 24 -54 55s24 54 54 54c29 0 53 -23 53 -54zM24 162c0 74 55 126 102 176c34 36 42 58 43 82h74c-3 -50 -18 -76 -58 -120c-35 -40 -85 -78 -85 -137c0 -63 43 -103 111 -103c73 0 114 51 120 123h81
c-12 -114 -89 -193 -201 -193c-117 0 -187 67 -187 172z" />
    <glyph glyph-name="guilsinglleft.cap" horiz-adv-x="215" 
d="M190 158h-73l-92 147l92 148h73l-92 -148z" />
    <glyph glyph-name="guilsinglright.cap" horiz-adv-x="215" 
d="M98 158h-73l92 147l-92 148h73l92 -148z" />
    <glyph glyph-name="guillemotleft.cap" horiz-adv-x="357" 
d="M187 158h-70l-92 147l92 148h70l-92 -148zM332 158h-70l-92 147l92 148h70l-92 -148z" />
    <glyph glyph-name="guillemotright.cap" horiz-adv-x="357" 
d="M240 158h-70l92 147l-92 148h70l92 -148zM95 158h-70l92 147l-92 148h70l92 -148z" />
    <glyph glyph-name="slash.cap" horiz-adv-x="333" 
d="M5 -64l248 734h75l-248 -734h-75z" />
    <glyph glyph-name="backslash.cap" horiz-adv-x="333" 
d="M80 670l248 -734h-75l-248 734h75z" />
    <glyph glyph-name="bar.cap" horiz-adv-x="219" 
d="M73 -64v734h73v-734h-73z" />
    <glyph glyph-name="periodcentered.cap" horiz-adv-x="176" 
d="M34 302c0 31 24 55 54 55c29 0 53 -24 53 -55s-24 -54 -53 -54c-30 0 -54 23 -54 54z" />
    <glyph glyph-name="bullet.cap" horiz-adv-x="343" 
d="M308 301c0 -80 -61 -136 -137 -136s-136 56 -136 136s60 136 136 136s137 -56 137 -136z" />
    <glyph glyph-name="hyphen.cap" horiz-adv-x="321" 
d="M40 266v70h241v-70h-241z" />
    <glyph glyph-name="endash.cap" horiz-adv-x="475" 
d="M40 271v61h395v-61h-395z" />
    <glyph glyph-name="emdash.cap" horiz-adv-x="846" 
d="M40 271v61h766v-61h-766z" />
    <glyph glyph-name="parenleft.cap" horiz-adv-x="321" 
d="M30 301c0 183 104 324 268 367v-80c-107 -26 -193 -133 -193 -287c0 -153 86 -260 193 -287v-80c-164 43 -268 184 -268 367z" />
    <glyph glyph-name="parenright.cap" horiz-adv-x="321" 
d="M291 301c0 -183 -104 -324 -268 -367v80c107 27 193 134 193 287c0 154 -86 261 -193 287v80c164 -43 268 -184 268 -367z" />
    <glyph glyph-name="bracketleft.cap" horiz-adv-x="313" 
d="M145 600v-597h145v-69h-217v734h217v-68h-145z" />
    <glyph glyph-name="bracketright.cap" horiz-adv-x="313" 
d="M168 3v597h-145v68h217v-734h-217v69h145z" />
    <glyph glyph-name="braceleft.cap" horiz-adv-x="339" 
d="M175 225v-186c0 -24 13 -36 36 -36h105v-69h-104c-65 0 -111 46 -111 113v183c0 24 -11 36 -35 36h-46v70h46c24 0 35 13 35 37v183c0 67 46 112 111 112h104v-68h-105c-23 0 -36 -12 -36 -37v-185c0 -38 -18 -62 -43 -77c25 -15 43 -39 43 -76z" />
    <glyph glyph-name="braceright.cap" horiz-adv-x="339" 
d="M164 39v186c0 37 18 61 43 76c-25 15 -43 39 -43 77v185c0 25 -13 37 -36 37h-105v68h104c65 0 111 -45 111 -112v-183c0 -24 11 -37 35 -37h46v-70h-46c-24 0 -35 -12 -35 -36v-183c0 -67 -46 -113 -111 -113h-104v69h105c23 0 36 12 36 36z" />
    <glyph glyph-name="at.cap" horiz-adv-x="774" 
d="M560 473l-43 -243c-7 -40 8 -54 40 -54c71 0 125 68 125 187c0 145 -114 239 -271 239c-188 0 -317 -137 -317 -322c0 -213 168 -286 318 -286c89 0 160 20 217 46v-57c-50 -24 -129 -45 -217 -45c-194 0 -380 102 -380 342c0 209 152 378 379 378
c197 0 331 -127 331 -295c0 -163 -96 -241 -195 -241c-47 0 -86 21 -100 58c-20 -33 -62 -57 -102 -57c-84 0 -132 65 -132 148c0 109 74 211 182 211c45 0 77 -23 91 -46l7 37h67zM450 243l23 124c-11 30 -38 53 -74 53c-72 0 -117 -74 -117 -146c0 -53 29 -89 77 -89
c41 0 70 26 91 58z" />
    <glyph glyph-name="Euro.lt" horiz-adv-x="520" 
d="M24 339v60h64c26 139 112 224 221 224c97 0 167 -62 189 -168h-74c-16 61 -56 99 -117 99c-72 0 -123 -61 -143 -155h192l-12 -60h-187c-1 -11 -1 -21 -1 -32c0 -13 0 -25 1 -37h177l-12 -60h-156c20 -92 70 -150 141 -150c61 0 101 38 117 99h74
c-22 -106 -92 -168 -189 -168c-108 0 -193 83 -220 219h-65v60h57c-1 12 -1 24 -1 37c0 11 0 21 1 32h-57z" />
    <glyph glyph-name="dollar.lt" horiz-adv-x="520" 
d="M235 -89v99c-94 10 -165 65 -184 156h77c21 -63 74 -92 142 -92c75 0 127 36 127 99c0 45 -25 74 -90 91l-103 27c-79 20 -138 63 -138 152c0 92 70 155 169 162v90h68v-93c88 -15 141 -70 161 -149h-74c-18 51 -61 88 -136 88c-68 0 -117 -35 -117 -94
c0 -50 33 -73 92 -89l97 -25c92 -24 143 -75 143 -157c0 -96 -69 -155 -166 -166v-99h-68z" />
    <glyph glyph-name="cent.lt" horiz-adv-x="520" 
d="M69 232c0 126 69 214 172 229v87h69v-88c79 -14 126 -69 138 -145h-75c-9 51 -48 82 -102 82c-77 0 -126 -68 -126 -165s49 -165 126 -165c54 0 93 31 102 82h75c-11 -76 -59 -131 -138 -145v-91h-69v90c-103 14 -172 103 -172 229z" />
    <glyph glyph-name="sterling.lt" horiz-adv-x="520" 
d="M200 425v-91h155v-62h-155v-116c0 -35 -7 -71 -22 -91h296v-65h-430v65h61c14 23 22 47 22 91v116h-83v62h83v91c0 115 72 198 180 198c97 0 156 -59 169 -145h-74c-8 50 -41 79 -95 79c-67 0 -107 -51 -107 -132z" />
    <glyph glyph-name="yen.lt" horiz-adv-x="520" 
d="M64 264v59h128l-168 291h84l153 -275l153 275h81l-168 -291h128v-59h-157v-70h157v-60h-157v-134h-77v134h-157v60h157v70h-157z" />
    <glyph glyph-name="florin.lt" horiz-adv-x="520" 
d="M153 281v63h82l25 138c16 88 71 141 155 141c23 0 44 -4 61 -12v-68c-17 9 -37 14 -60 14c-43 0 -73 -29 -82 -81l-24 -132h97v-63h-108l-56 -320c-15 -85 -53 -138 -140 -138c-25 0 -43 4 -60 12v68c17 -9 41 -14 59 -14c44 0 58 30 67 78l55 314h-71z" />
    <glyph glyph-name="zero.lt" horiz-adv-x="520" 
d="M260 -9c-137 0 -228 129 -228 316s91 316 228 316s228 -129 228 -316s-91 -316 -228 -316zM260 552c-100 0 -152 -102 -152 -245s52 -245 152 -245c99 0 151 102 151 245s-52 245 -151 245z" />
    <glyph glyph-name="one.lt" horiz-adv-x="520" 
d="M77 0v70h175v450l-172 -88v80l202 103h47v-545h154v-70h-406z" />
    <glyph glyph-name="two.lt" horiz-adv-x="520" 
d="M367 449c0 63 -44 104 -112 104c-75 0 -116 -52 -123 -123h-80c12 114 88 193 203 193c118 0 189 -68 189 -173c0 -78 -62 -140 -126 -209l-159 -171h297v-70h-405v52l201 218c64 71 115 121 115 179z" />
    <glyph glyph-name="three.lt" horiz-adv-x="520" 
d="M216 281v67h44c67 0 118 37 118 103c0 60 -47 104 -119 104c-70 0 -114 -45 -124 -109h-77c14 104 92 177 203 177c120 0 192 -70 192 -168c0 -68 -42 -123 -98 -140c67 -19 110 -75 110 -145c0 -100 -75 -179 -202 -179c-126 0 -205 71 -217 184h78
c11 -70 58 -116 138 -116c75 0 127 45 127 112c0 69 -56 110 -128 110h-45z" />
    <glyph glyph-name="four.lt" horiz-adv-x="520" 
d="M344 614l-229 -409h196v148h73v-148h108v-66h-108v-139h-73v139h-283v56l236 419h80z" />
    <glyph glyph-name="five.lt" horiz-adv-x="520" 
d="M263 330c-51 0 -94 -25 -118 -53h-61v337h347v-70h-282v-186c22 19 67 40 119 40c116 0 199 -86 199 -204c0 -117 -84 -203 -205 -203c-122 0 -203 70 -218 184h78c13 -72 63 -116 141 -116c77 0 130 58 130 135s-53 136 -130 136z" />
    <glyph glyph-name="six.lt" horiz-adv-x="520" 
d="M138 196c0 -80 56 -138 135 -138c78 0 135 57 135 138c0 82 -57 140 -135 140c-79 0 -135 -57 -135 -140zM472 471h-79c-17 52 -51 87 -115 87c-91 0 -157 -103 -157 -235c0 -6 1 -20 1 -27c21 62 84 105 158 105c120 0 201 -93 201 -204c0 -113 -82 -206 -208 -206
c-82 0 -147 40 -185 117c-27 55 -37 116 -37 188c0 199 93 327 227 327c110 0 170 -58 194 -152z" />
    <glyph glyph-name="seven.lt" horiz-adv-x="520" 
d="M468 553l-225 -553h-79l224 544h-341v70h421v-61z" />
    <glyph glyph-name="eight.lt" horiz-adv-x="520" 
d="M261 55c79 0 138 48 138 118c0 69 -59 117 -138 117c-78 0 -137 -48 -137 -117c0 -70 59 -118 137 -118zM261 356c65 0 116 41 116 101c0 61 -51 102 -116 102c-64 0 -115 -41 -115 -102c0 -60 51 -101 115 -101zM261 -9c-120 0 -212 70 -212 176c0 80 53 138 121 156
c-57 20 -99 71 -99 138c0 99 85 162 190 162c107 0 191 -63 191 -162c0 -67 -42 -118 -99 -138c68 -18 121 -76 121 -156c0 -106 -92 -176 -213 -176z" />
    <glyph glyph-name="nine.lt" horiz-adv-x="520" 
d="M382 418c0 80 -56 138 -135 138c-78 0 -135 -57 -135 -138c0 -82 57 -140 135 -140c79 0 135 57 135 140zM48 143h79c17 -52 51 -87 115 -87c91 0 157 103 157 235c0 6 -1 20 -1 27c-21 -62 -84 -105 -158 -105c-120 0 -201 93 -201 204c0 113 82 206 208 206
c82 0 147 -40 185 -117c27 -55 37 -116 37 -188c0 -199 -93 -327 -227 -327c-110 0 -170 58 -194 152z" />
    <glyph glyph-name="period.tab" horiz-adv-x="260" 
d="M77 49c0 31 23 55 53 55s53 -24 53 -55s-23 -54 -53 -54s-53 23 -53 54z" />
    <glyph glyph-name="comma.tab" horiz-adv-x="260" 
d="M57 -107l63 106c-24 4 -43 21 -43 50c0 31 23 53 53 53s53 -21 53 -58c0 -21 -9 -44 -22 -63l-53 -88h-51z" />
    <glyph glyph-name="colon.tab" horiz-adv-x="260" 
d="M76 49c0 31 24 55 54 55c29 0 53 -24 53 -55s-24 -54 -53 -54c-30 0 -54 23 -54 54zM76 363c0 31 24 55 54 55c29 0 53 -24 53 -55s-24 -54 -53 -54c-30 0 -54 23 -54 54z" />
    <glyph glyph-name="semicolon.tab" horiz-adv-x="260" 
d="M57 -107l63 106c-25 4 -44 21 -44 50c0 31 24 53 54 53s53 -21 53 -58c0 -21 -10 -44 -22 -63l-53 -88h-51zM76 363c0 31 24 55 54 55c29 0 53 -24 53 -55s-24 -54 -53 -54c-30 0 -54 23 -54 54z" />
    <glyph glyph-name="space.tab" horiz-adv-x="260" 
 />
    <glyph glyph-name="uni2153" unicode="&#x2153;" horiz-adv-x="685" 
d="M569 614l-429 -614h-67l429 614h67zM492 145v48h23c30 0 52 16 52 46c0 26 -20 45 -49 45s-49 -21 -53 -49h-62c7 58 49 103 113 103c69 0 110 -40 110 -97c0 -33 -20 -62 -46 -72c32 -11 51 -39 51 -72c0 -59 -42 -102 -114 -102c-70 0 -113 41 -119 105h64
c4 -31 24 -51 57 -51c31 0 52 18 52 49c0 30 -23 47 -54 47h-25zM191 615v-333h-62v259l-88 -44v64l108 54h42z" />
    <glyph glyph-name="uni2154" unicode="&#x2154;" horiz-adv-x="745" 
d="M629 614l-429 -614h-67l429 614h67zM210 522c0 26 -19 44 -46 44c-30 0 -48 -24 -50 -53h-66c7 63 50 109 116 109c67 0 108 -40 108 -99c0 -43 -31 -74 -64 -109l-74 -75h141v-55h-226v43l112 117c31 32 49 53 49 78zM552 145v48h23c30 0 52 16 52 46
c0 26 -20 45 -49 45s-49 -21 -53 -49h-62c7 58 49 103 113 103c69 0 110 -40 110 -97c0 -33 -20 -62 -45 -72c31 -11 50 -39 50 -72c0 -59 -42 -102 -114 -102c-70 0 -113 41 -119 105h65c3 -31 23 -51 56 -51c31 0 52 18 52 49c0 30 -23 47 -54 47h-25z" />
    <glyph glyph-name="uni215B" unicode="&#x215b;" horiz-adv-x="691" 
d="M569 614l-429 -614h-67l429 614h67zM519 46c34 0 58 21 58 51c0 29 -24 50 -58 50s-58 -21 -58 -50c0 -30 24 -51 58 -51zM519 199c28 0 49 19 49 45c0 27 -21 45 -49 45c-29 0 -50 -18 -50 -45c0 -26 21 -45 50 -45zM519 -4c-67 0 -120 37 -120 96c0 41 26 70 59 80
c-29 13 -47 40 -47 73c0 59 48 93 108 93c59 0 108 -34 108 -93c0 -33 -19 -60 -48 -73c34 -10 59 -39 59 -80c0 -59 -52 -96 -119 -96zM191 615v-333h-62v259l-88 -44v64l108 54h42z" />
    <glyph glyph-name="uni215C" unicode="&#x215c;" horiz-adv-x="730" 
d="M558 46c33 0 58 21 58 51c0 29 -25 50 -58 50c-34 0 -58 -21 -58 -50c0 -30 24 -51 58 -51zM558 199c28 0 49 19 49 45c0 27 -21 45 -49 45c-29 0 -51 -18 -51 -45c0 -26 22 -45 51 -45zM558 -4c-67 0 -120 37 -120 96c0 41 26 70 59 80c-29 13 -48 40 -48 73
c0 59 49 93 109 93c58 0 108 -34 108 -93c0 -33 -20 -60 -48 -73c34 -10 59 -39 59 -80c0 -59 -52 -96 -119 -96zM608 614l-429 -614h-67l428 614h68zM140 427v48h24c29 0 51 16 51 46c0 26 -19 45 -49 45c-28 0 -49 -21 -52 -49h-63c8 58 49 102 113 102
c69 0 110 -39 110 -96c0 -33 -19 -62 -45 -72c31 -11 50 -39 50 -73c0 -58 -42 -101 -113 -101s-114 41 -120 105h65c4 -31 24 -51 56 -51s53 18 53 49c0 30 -23 47 -54 47h-26z" />
    <glyph glyph-name="uni215D" unicode="&#x215d;" horiz-adv-x="733" 
d="M562 46c33 0 58 21 58 51c0 29 -25 50 -58 50c-34 0 -58 -21 -58 -50c0 -30 24 -51 58 -51zM562 199c28 0 49 19 49 45c0 27 -21 45 -49 45c-29 0 -51 -18 -51 -45c0 -26 22 -45 51 -45zM562 -4c-68 0 -120 37 -120 96c0 41 26 70 59 80c-29 13 -48 40 -48 73
c0 59 49 93 109 93c58 0 108 -34 108 -93c0 -33 -20 -60 -48 -73c33 -10 59 -39 59 -80c0 -59 -52 -96 -119 -96zM612 614l-429 -614h-67l428 614h68zM171 447c-21 0 -38 -11 -48 -24h-54v191h194v-55h-142v-77c12 9 33 17 56 17c65 0 108 -46 108 -110
c0 -67 -46 -112 -114 -112c-70 0 -115 41 -121 105h64c5 -30 25 -51 58 -51c31 0 53 25 53 57c0 33 -22 59 -54 59z" />
    <glyph glyph-name="uni215E" unicode="&#x215e;" horiz-adv-x="673" 
d="M502 46c33 0 58 21 58 51c0 29 -25 50 -58 50c-34 0 -58 -21 -58 -50c0 -30 24 -51 58 -51zM502 199c28 0 49 19 49 45c0 27 -21 45 -49 45c-29 0 -51 -18 -51 -45c0 -26 22 -45 51 -45zM502 -4c-68 0 -120 37 -120 96c0 41 26 70 59 80c-29 13 -48 40 -48 73
c0 59 49 93 109 93c58 0 108 -34 108 -93c0 -33 -20 -60 -48 -73c33 -10 59 -39 59 -80c0 -59 -52 -96 -119 -96zM551 614l-428 -614h-67l428 614h67zM270 568l-109 -287h-65l107 277h-157v56h224v-46z" />
    <glyph glyph-name="percent.lt" horiz-adv-x="520" 
d="M19 501c0 68 54 122 122 122s122 -54 122 -122c0 -67 -54 -121 -122 -121s-122 54 -122 121zM72 501c0 -38 30 -69 69 -69c38 0 69 31 69 69c0 39 -31 70 -69 70c-39 0 -69 -31 -69 -70zM501 113c0 -68 -54 -122 -121 -122c-68 0 -123 54 -123 122c0 67 55 121 123 121
c67 0 121 -54 121 -121zM448 113c0 38 -30 69 -68 69c-39 0 -70 -31 -70 -69c0 -39 31 -70 70 -70c38 0 68 31 68 70zM38 0l383 614h62l-383 -614h-62z" />
    <glyph glyph-name="perthousand.lt" horiz-adv-x="800" 
d="M42 0l383 614h62l-383 -614h-62zM76 501c0 -38 30 -69 69 -69c38 0 69 31 69 69c0 39 -31 70 -69 70c-39 0 -69 -31 -69 -70zM505 113c0 -68 -54 -122 -121 -122c-68 0 -123 54 -123 122c0 67 55 121 123 121c67 0 121 -54 121 -121zM452 113c0 38 -30 69 -68 69
c-39 0 -70 -31 -70 -69c0 -39 31 -70 70 -70c38 0 68 31 68 70zM23 501c0 68 54 122 122 122s122 -54 122 -122c0 -67 -54 -121 -122 -121s-122 54 -122 121zM776 113c0 -68 -54 -122 -121 -122c-68 0 -122 54 -122 122c0 67 54 121 122 121c67 0 121 -54 121 -121zM724 113
c0 38 -31 69 -69 69c-39 0 -69 -31 -69 -69c0 -39 30 -70 69 -70c38 0 69 31 69 70z" />
    <glyph glyph-name="plus.lt" horiz-adv-x="520" 
d="M229 494h62v-166h166v-62h-166v-166h-62v166h-167v62h167v166z" />
    <glyph glyph-name="minus.lt" horiz-adv-x="520" 
d="M62 266v62h395v-62h-395z" />
    <glyph glyph-name="multiply.lt" horiz-adv-x="520" 
d="M218 295l-122 121l43 42l120 -122l122 122l42 -42l-121 -121l121 -122l-42 -43l-122 122l-120 -122l-43 43z" />
    <glyph glyph-name="divide.lt" horiz-adv-x="520" 
d="M62 266v62h395v-62h-395zM210 458c0 28 22 51 50 51c27 0 50 -23 50 -51s-23 -51 -50 -51c-28 0 -50 23 -50 51zM210 136c0 28 22 51 50 51c27 0 50 -23 50 -51s-23 -51 -50 -51c-28 0 -50 23 -50 51z" />
    <glyph glyph-name="equal.lt" horiz-adv-x="520" 
d="M62 199v58h395v-58h-395zM62 337v60h395v-60h-395z" />
    <glyph glyph-name="less.lt" horiz-adv-x="520" 
d="M112 256v78l296 151v-71l-238 -119l238 -119v-71z" />
    <glyph glyph-name="greater.lt" horiz-adv-x="520" 
d="M408 334v-78l-297 -151v71l238 119l-238 119v71z" />
    <glyph glyph-name="plusminus.lt" horiz-adv-x="520" 
d="M229 518h61v-129h164v-62h-164v-129h-61v129h-164v62h164v129zM65 88v62h389v-62h-389z" />
    <glyph glyph-name="lessequal.lt" horiz-adv-x="520" 
d="M111 308v74l297 121v-68l-230 -90l230 -91v-67zM111 91v62h297v-62h-297z" />
    <glyph glyph-name="greaterequal.lt" horiz-adv-x="520" 
d="M408 382v-74l-297 -121v67l229 91l-229 90v68zM408 153v-62h-297v62h297z" />
    <glyph glyph-name="notequal.lt" horiz-adv-x="520" 
d="M62 338v57h238l68 93h60l-68 -93h97v-57h-139l-60 -82h199v-57h-240l-67 -92h-59l67 92h-96v57h137l60 82h-197z" />
    <glyph glyph-name="approxequal.lt" horiz-adv-x="520" 
d="M62 308v62c38 29 74 40 107 40c67 0 113 -41 179 -41c33 0 69 13 109 43v-61c-40 -30 -76 -42 -109 -42c-67 0 -113 42 -179 42c-33 0 -69 -13 -107 -43zM62 184v61c38 30 74 41 107 41c67 0 113 -42 179 -42c33 0 69 12 109 43v-61c-40 -30 -76 -41 -109 -41
c-67 0 -113 41 -179 41c-33 0 -69 -13 -107 -42z" />
    </font>
</defs>
</svg>
